<?xml version="1.0" standalone="no"?>
<!DOCTYPE svg PUBLIC "-//W3C//DTD SVG 1.1//EN" "http://www.w3.org/Graphics/SVG/1.1/DTD/svg11.dtd" >
<svg xmlns="http://www.w3.org/2000/svg" xmlns:xlink="http://www.w3.org/1999/xlink" version="1.1">
<metadata>
Created by FontForge 20170910 at Thu Apr 20 15:23:38 2017
 By jimmywarting
2013 published by FontShop International GmbH
</metadata>
<defs>
<font id="MeterRegular" horiz-adv-x="600" >
  <font-face 
    font-family="MeterRegular"
    font-weight="400"
    font-stretch="normal"
    units-per-em="1000"
    panose-1="2 11 8 4 2 1 1 1 1 2"
    ascent="790"
    descent="-210"
    x-height="473"
    cap-height="700"
    bbox="-674 -238 1558 1104"
    underline-thickness="54"
    underline-position="-130"
    unicode-range="U+000D-FEFF"
  />
<missing-glyph horiz-adv-x="598" 
d="M510 700v-700h-422v700h422zM451 641h-303v-581h303v581z" />
    <glyph glyph-name="fi" unicode="fi" horiz-adv-x="678" 
d="M206 412v-412h-68v412h-111v61h111v78q0 82 39 130t120 48q72 0 130 -37l-25 -55q-21 12 -47.5 20t-52.5 8q-96 0 -96 -114v-78h195v-61h-195zM590.5 674q13.5 -14 13.5 -34t-13.5 -33.5t-33.5 -13.5q-19 0 -32.5 13.5t-13.5 33.5t13.5 34t32.5 14q20 0 33.5 -14zM524 0
v473h67v-473h-67z" />
    <glyph glyph-name="fl" unicode="fl" horiz-adv-x="678" 
d="M206 412v-412h-68v412h-111v61h111v78q0 82 39 130t120 48q72 0 130 -37l-25 -55q-21 12 -47.5 20t-52.5 8q-96 0 -96 -114v-78h195v-61h-195zM524 0v720h67v-720h-67z" />
    <glyph glyph-name="f_f" unicode="ff" horiz-adv-x="858" 
d="M206 412v-412h-68v412h-111v61h111v78q0 82 39 130t120 48q72 0 130 -37l-25 -55q-21 12 -47.5 20t-52.5 8q-96 0 -96 -114v-78h195v-61h-195zM628 412v-412h-68v412h-111v61h111v78q0 82 39 130t120 48q70 0 130 -37l-26 -55q-20 12 -46.5 20t-53.5 8q-50 0 -72.5 -29
t-22.5 -85v-78h195v-61h-195z" />
    <glyph glyph-name="f_f_i" unicode="ffi" horiz-adv-x="1100" 
d="M206 412v-412h-68v412h-111v61h111v78q0 82 39 130t120 48q72 0 130 -37l-25 -55q-21 12 -47.5 20t-52.5 8q-96 0 -96 -114v-78h195v-61h-195zM628 412v-412h-68v412h-111v61h111v78q0 82 39 130t120 48q70 0 130 -37l-26 -55q-20 12 -46.5 20t-53.5 8q-50 0 -72.5 -29
t-22.5 -85v-78h195v-61h-195zM1012.5 674q13.5 -14 13.5 -34q0 -19 -13.5 -33t-33.5 -14t-33 13.5t-13 33.5t13 34t33 14t33.5 -14zM945 0v473h68v-473h-68z" />
    <glyph glyph-name="f_f_l" unicode="ffl" horiz-adv-x="1100" 
d="M206 412v-412h-68v412h-111v61h111v78q0 82 39 130t120 48q72 0 130 -37l-25 -55q-21 12 -47.5 20t-52.5 8q-96 0 -96 -114v-78h195v-61h-195zM628 412v-412h-68v412h-111v61h111v78q0 82 39 130t120 48q70 0 130 -37l-26 -55q-20 12 -46.5 20t-53.5 8q-50 0 -72.5 -29
t-22.5 -85v-78h195v-61h-195zM945 0v720h68v-720h-68z" />
    <glyph glyph-name=".notdef" horiz-adv-x="598" 
d="M510 700v-700h-422v700h422zM451 641h-303v-581h303v581z" />
    <glyph glyph-name=".null" horiz-adv-x="0" 
 />
    <glyph glyph-name="nonmarkingreturn" unicode="&#xd;" horiz-adv-x="263" 
 />
    <glyph glyph-name="space" unicode=" " horiz-adv-x="263" 
 />
    <glyph glyph-name="exclam" unicode="!" horiz-adv-x="263" 
d="M100 221l-10 479h82l-10 -479h-62zM169.5 86q16.5 -16 16.5 -38q0 -23 -16.5 -39.5t-38.5 -16.5q-21 0 -37.5 17t-16.5 39t16.5 38t37.5 16q22 0 38.5 -16z" />
    <glyph glyph-name="quotedbl" unicode="&#x22;" horiz-adv-x="515" 
d="M209 470h-67v250h67v-250zM373 470h-68v250h68v-250z" />
    <glyph glyph-name="numbersign" unicode="#" horiz-adv-x="729" 
d="M284 700h63l-39 -184h184l39 184h64l-40 -184h113l-13 -60h-113l-44 -208h113l-12 -60h-114l-39 -188h-64l40 188h-184l-40 -188h-63l40 188h-114l13 60h114l44 208h-115l13 60h115zM435 248l44 208h-184l-44 -208h184z" />
    <glyph glyph-name="dollar" unicode="$" horiz-adv-x="700" 
d="M326 4q-66 4 -132 26.5t-109 55.5l36 56q36 -27 91.5 -48t112.5 -25v252l-20 3q-96 11 -148.5 56t-52.5 120q0 85 62 137t159 59v95h61v-95q122 -7 220 -73l-35 -56q-38 26 -85 42.5t-100 20.5v-249l26 -3q94 -12 149 -55.5t55 -118.5q0 -88 -64.5 -139.5t-165.5 -60.5
v-98h-60v98zM325 630q-68 -6 -109 -39t-42 -87q0 -95 151 -115v241zM501.5 109q43.5 33 44.5 89q0 95 -160 115v-243q72 6 115.5 39z" />
    <glyph glyph-name="percent" unicode="%" horiz-adv-x="961" 
d="M321.5 685.5q41.5 -23.5 65 -64.5t23.5 -91q0 -51 -23.5 -91.5t-65 -64t-92.5 -23.5q-50 0 -91.5 23.5t-65 64t-23.5 91.5q0 50 23.5 91t65 64.5t91.5 23.5q51 0 92.5 -23.5zM223 0l445 700h70l-445 -700h-70zM144 616.5q-34 -34.5 -34 -86.5t34 -86.5t85 -34.5
t85.5 34.5t34.5 86.5t-34.5 86.5t-85.5 34.5t-85 -34.5zM823.5 326q41.5 -23 65.5 -64t24 -92q0 -50 -24 -91t-65.5 -64.5t-92.5 -23.5q-50 0 -91 23.5t-64.5 64.5t-23.5 91t23.5 91t64.5 64.5t91 23.5q51 0 92.5 -23zM646.5 257.5q-33.5 -34.5 -33.5 -87.5q0 -52 34 -86
t84 -34q52 0 86 34t34 86q0 53 -34 87.5t-86 34.5q-51 0 -84.5 -34.5z" />
    <glyph glyph-name="ampersand" unicode="&#x26;" horiz-adv-x="697" 
d="M468 110q-44 -55 -95 -87t-120 -32q-90 0 -143.5 47t-53.5 126q0 63 37.5 111t104.5 98q-57 56 -80.5 94.5t-23.5 86.5q0 43 22 78.5t61 56t88 20.5q50 0 89 -19.5t60.5 -54t21.5 -77.5q0 -55 -35.5 -97.5t-101.5 -90.5l164 -160l113 165l54 -34l-120 -176l168 -165h-97z
M184.5 491q18.5 -27 69.5 -78q55 41 83 73t28 69q0 39 -28 65t-72 26t-71.5 -27t-27.5 -69q0 -32 18.5 -59zM346.5 80q38.5 25 76.5 75l-180 174q-55 -42 -85 -79t-30 -83q0 -50 36 -81t93 -31q51 0 89.5 25z" />
    <glyph glyph-name="quotesingle" unicode="'" horiz-adv-x="351" 
d="M209 470h-67v250h67v-250z" />
    <glyph glyph-name="parenleft" unicode="(" horiz-adv-x="403" 
d="M247.5 572q-49.5 -55 -76.5 -130t-27 -158t27 -157.5t76.5 -129.5t115.5 -81l-23 -62q-79 29 -139.5 92t-94 150.5t-33.5 187.5t33.5 187.5t94 150.5t139.5 92l23 -61q-66 -26 -115.5 -81z" />
    <glyph glyph-name="parenright" unicode=")" horiz-adv-x="403" 
d="M155.5 -3q49.5 55 76.5 130t27 158t-27 158t-76.5 129.5t-114.5 80.5l23 62q78 -29 138.5 -92t94 -150.5t33.5 -187.5t-33.5 -187.5t-94 -150.5t-138.5 -92l-23 61q65 26 114.5 81z" />
    <glyph glyph-name="asterisk" unicode="*" horiz-adv-x="439" 
d="M194 720h52v-134l126 42l17 -49l-128 -42l79 -108l-41 -30l-79 108l-79 -108l-41 30l78 108l-127 42l16 49l127 -42v134z" />
    <glyph glyph-name="plus" unicode="+" 
d="M269 234h-184v60h184v187h61v-187h185v-60h-185v-184h-61v184z" />
    <glyph glyph-name="comma" unicode="," horiz-adv-x="247" 
d="M125 -127h-57l31 250h78z" />
    <glyph glyph-name="hyphen" unicode="-" horiz-adv-x="416" 
d="M71 234v60h275v-60h-275z" />
    <glyph glyph-name="period" unicode="." horiz-adv-x="262" 
d="M170 86q16 -16 16 -39q0 -22 -16.5 -39t-38.5 -17t-38.5 17t-16.5 39t16.5 38.5t38.5 16.5q23 0 39 -16z" />
    <glyph glyph-name="slash" unicode="/" horiz-adv-x="496" 
d="M-1 -100l425 870h73l-424 -870h-74z" />
    <glyph glyph-name="zero" unicode="0" horiz-adv-x="709" 
d="M500.5 665.5q65.5 -43.5 103.5 -125t38 -190.5q0 -108 -38.5 -189.5t-104 -125.5t-144.5 -44q-80 0 -146 43.5t-104 125t-38 190.5t38 190.5t104 125t146 43.5t145.5 -43.5zM245.5 606.5q-49.5 -34.5 -78 -100t-28.5 -156.5q0 -90 28.5 -156t78 -100.5t109.5 -34.5
t109 34.5t77.5 100.5t28.5 156q0 91 -28.5 156.5t-77.5 100t-109 34.5t-109.5 -34.5z" />
    <glyph glyph-name="one" unicode="1" horiz-adv-x="426" 
d="M250 0v608l-216 -93v71l286 122v-708h-70z" />
    <glyph glyph-name="two" unicode="2" horiz-adv-x="548" 
d="M256 709q69 0 119 -28t76 -76.5t26 -109.5q0 -59 -26 -107.5t-69 -92.5l-217 -229h337v-66h-440v55l268 280q36 38 55.5 76.5t19.5 82.5q0 64 -40.5 106t-110.5 42q-57 0 -95 -24.5t-67 -66.5l-49 41q78 117 213 117z" />
    <glyph glyph-name="three" unicode="3" horiz-adv-x="552" 
d="M370 685q52 -24 81 -67t29 -98q0 -62 -31 -104t-86 -62q61 -20 97 -63t36 -104q0 -63 -33.5 -107.5t-88 -66.5t-118.5 -22q-70 0 -126.5 24t-95.5 66l43 47q34 -34 79.5 -52.5t97.5 -18.5q72 0 120.5 34.5t48.5 99.5q0 60 -49.5 95.5t-124.5 35.5h-94v64h94
q70 0 114 33.5t44 96.5q0 57 -45.5 92.5t-115.5 35.5q-51 0 -91.5 -22.5t-67.5 -57.5l-49 43q34 46 87.5 74t124.5 28q68 0 120 -24z" />
    <glyph glyph-name="four" unicode="4" horiz-adv-x="577" 
d="M551 215v-65h-123v-150h-69v150h-332v53l259 497h79l-255 -485h249v199h69v-199h123z" />
    <glyph glyph-name="five" unicode="5" horiz-adv-x="577" 
d="M173 635l-8 -216h106q79 0 134.5 -27t83.5 -73.5t28 -104.5q0 -69 -31 -119.5t-85 -77t-122 -26.5q-147 0 -236 108l45 46q34 -42 84 -64.5t106 -22.5q78 0 122.5 42t44.5 108q0 65 -47.5 105t-147.5 40h-150l10 347h376v-65h-313z" />
    <glyph glyph-name="six" unicode="6" horiz-adv-x="577" 
d="M294 445q68 0 123.5 -29.5t86.5 -81t31 -115.5t-32.5 -116t-89 -82t-126.5 -30t-126.5 30t-88.5 82t-32 116q0 71 49 148l209 333h85l-175 -271q43 16 86 16zM197 361q-40 -21 -62.5 -58t-22.5 -84t22.5 -84t62.5 -58t90 -21t90 21t62.5 58t22.5 84t-22.5 84t-62.5 58
t-90 21t-90 -21z" />
    <glyph glyph-name="seven" unicode="7" horiz-adv-x="547" 
d="M196 0h-82l317 635h-391v65h475v-54z" />
    <glyph glyph-name="eight" unicode="8" horiz-adv-x="629" 
d="M437 686.5q55 -22.5 87 -65.5t32 -101q0 -61 -32 -102t-85 -63q61 -22 97.5 -64.5t36.5 -104.5q0 -61 -34.5 -105t-93 -67t-130.5 -23t-131 23t-93.5 67t-34.5 105q0 63 36.5 105t96.5 64q-53 22 -84.5 63t-31.5 102q0 58 32 101t87.5 65.5t122.5 22.5t122 -22.5z
M194.5 610q-47.5 -34 -47.5 -94q0 -64 47.5 -98.5t120.5 -34.5q72 0 119.5 35t47.5 98q0 60 -47.5 94t-119.5 34q-73 0 -120.5 -34zM182.5 288.5q-52.5 -35.5 -52.5 -98.5t52.5 -98.5t132.5 -35.5q79 0 131 35.5t52 98.5t-52.5 98.5t-130.5 35.5q-80 0 -132.5 -35.5z" />
    <glyph glyph-name="nine" unicode="9" horiz-adv-x="577" 
d="M283 255q-68 0 -123 29.5t-86 81.5t-31 116t32 115.5t88.5 81.5t126.5 30t126.5 -30t89 -81.5t32.5 -115.5q0 -38 -12 -73.5t-36 -74.5l-210 -334h-85l174 272q-40 -17 -86 -17zM380 340q40 21 63 58t23 84q0 46 -22.5 83t-63 58t-90.5 21t-90 -21t-62.5 -58t-22.5 -83
q0 -47 22.5 -84t62.5 -58t90 -21t90 21z" />
    <glyph glyph-name="colon" unicode=":" horiz-adv-x="262" 
d="M170 465q16 -16 16 -39q0 -22 -16.5 -38.5t-38.5 -16.5t-38.5 16.5t-16.5 38.5t16.5 38.5t38.5 16.5q23 0 39 -16zM169.5 86q16.5 -16 16.5 -38q0 -23 -16.5 -39.5t-38.5 -16.5t-38.5 17t-16.5 39t16.5 38t38.5 16t38.5 -16z" />
    <glyph glyph-name="semicolon" unicode=";" horiz-adv-x="247" 
d="M166 464.5q16 -16.5 16 -38.5t-16 -38.5t-38 -16.5t-38.5 16.5t-16.5 38.5t16.5 38.5t38.5 16.5t38 -16.5zM125 -127h-57l31 250h78z" />
    <glyph glyph-name="less" unicode="&#x3c;" 
d="M106 232v65l389 185v-71l-322 -147l322 -146v-71z" />
    <glyph glyph-name="equal" unicode="=" 
d="M85 325v59h430v-59h-430zM85 144v60h430v-60h-430z" />
    <glyph glyph-name="greater" unicode="&#x3e;" 
d="M495 297v-65l-389 -185v71l322 146l-322 147v71z" />
    <glyph glyph-name="question" unicode="?" horiz-adv-x="427" 
d="M107 378h28q87 0 136 35.5t49 98.5q0 59 -49.5 93.5t-131.5 34.5q-13 0 -64 -3l-6 69q33 5 74 5q76 0 132.5 -24.5t87.5 -68.5t31 -103q0 -85 -58 -137t-164 -62l-4 -95h-61v157zM176 85.5q16 -16.5 16 -38.5q0 -23 -16 -39.5t-38 -16.5t-38.5 17t-16.5 39t16.5 38.5
t38.5 16.5t38 -16.5z" />
    <glyph glyph-name="at" unicode="@" horiz-adv-x="987" 
d="M697.5 127q15.5 -24 46.5 -24q43 0 70.5 43t27.5 120q0 98 -45.5 173.5t-125 117.5t-177.5 42t-177.5 -45.5t-125.5 -125.5t-46 -178q0 -100 45.5 -180.5t125.5 -126t177 -45.5q121 0 217 68l31 -43q-108 -79 -248 -79q-115 0 -208.5 53.5t-146.5 146.5t-53 206
q0 112 53.5 204t147 145t208.5 53q116 0 209 -49.5t146 -137.5t53 -199q0 -62 -19.5 -111t-56.5 -77.5t-86 -28.5q-45 0 -73 22t-37 60q-23 -36 -61.5 -57.5t-89.5 -21.5q-53 0 -97 25.5t-69 71t-25 101.5t25 101.5t68.5 71.5t96.5 26q49 0 86 -20.5t61 -56.5v70h57v-239
q0 -52 15.5 -76zM387 353q-39 -41 -39 -103t39 -103t100 -41t100.5 41t39.5 103t-39.5 103t-100.5 41t-100 -41z" />
    <glyph glyph-name="A" unicode="A" horiz-adv-x="708" 
d="M612 0l-81 199h-355l-82 -199h-75l291 700h88l291 -700h-77zM502 267l-149 363l-150 -363h299z" />
    <glyph glyph-name="B" unicode="B" horiz-adv-x="699" 
d="M557.5 655.5q66.5 -44.5 66.5 -138.5q0 -61 -31.5 -101t-86.5 -55q61 -17 96.5 -60t35.5 -109q0 -97 -66 -144.5t-186 -47.5h-285v700h273q117 0 183.5 -44.5zM174 389h198q83 0 130 28t47 94q0 67 -47 95t-131 28h-197v-245zM174 67h209q87 0 133.5 29.5t46.5 98.5
t-46.5 98.5t-133.5 29.5h-209v-256z" />
    <glyph glyph-name="C" unicode="C" horiz-adv-x="763" 
d="M588 670q76 -39 118 -107l-61 -40q-36 54 -94.5 85t-129.5 31q-80 0 -145 -36.5t-102.5 -102t-37.5 -150.5t37.5 -150.5t102.5 -102t145 -36.5q70 0 129.5 31t94.5 85l59 -43q-45 -67 -119.5 -105t-163.5 -38q-102 0 -184.5 46t-129 128t-46.5 185t46.5 185t129 128
t184.5 46q91 0 167 -39z" />
    <glyph glyph-name="D" unicode="D" horiz-adv-x="798" 
d="M560.5 657q85.5 -43 131.5 -122t46 -185t-46 -185t-131.5 -122t-199.5 -43h-260v700h260q114 0 199.5 -43zM174 68h187q144 0 222.5 76t78.5 206q0 131 -78 206.5t-223 75.5h-187v-564z" />
    <glyph glyph-name="E" unicode="E" horiz-adv-x="670" 
d="M101 0v700h484v-67h-411v-247h398v-67h-398v-251h415v-68h-488z" />
    <glyph glyph-name="F" unicode="F" horiz-adv-x="644" 
d="M174 318v-318h-73v700h482v-68h-409v-246h391v-68h-391z" />
    <glyph glyph-name="G" unicode="G" horiz-adv-x="816" 
d="M572.5 678q70.5 -31 118.5 -87l-53 -51q-40 47 -95.5 73t-121.5 26q-80 0 -145 -36.5t-102.5 -102t-37.5 -150.5t37.5 -150.5t102 -102t142.5 -36.5q114 0 182.5 65.5t76.5 179.5h-228v66h306q1 -7 1 -20q0 -103 -42 -185t-118.5 -129t-177.5 -47q-95 0 -177 44
t-131 125.5t-49 189.5q0 104 47 185.5t129 127.5t184 46q81 0 151.5 -31z" />
    <glyph glyph-name="H" unicode="H" horiz-adv-x="782" 
d="M608 387v313h73v-700h-73v319h-434v-319h-73v700h73v-313h434z" />
    <glyph glyph-name="I" unicode="I" horiz-adv-x="275" 
d="M101 0v700h73v-700h-73z" />
    <glyph glyph-name="J" unicode="J" horiz-adv-x="574" 
d="M446.5 111q-31.5 -59 -86.5 -89.5t-125 -30.5q-131 0 -213 95l47 50q28 -33 69.5 -54t94.5 -21q79 0 126 51t47 147v441h72v-448q0 -82 -31.5 -141z" />
    <glyph glyph-name="K" unicode="K" horiz-adv-x="688" 
d="M174 318v-318h-73v700h73v-314h89l297 314h93l-332 -344l353 -356h-97l-315 318h-88z" />
    <glyph glyph-name="L" unicode="L" horiz-adv-x="602" 
d="M101 0v700h73v-632h408v-68h-481z" />
    <glyph glyph-name="M" unicode="M" horiz-adv-x="930" 
d="M757 0v616l-254 -535h-76l-253 532v-613h-73v700h108l256 -535l256 535h108v-700h-72z" />
    <glyph glyph-name="N" unicode="N" horiz-adv-x="785" 
d="M618 0l-444 577v-577h-73v700h66l444 -577v577h73v-700h-66z" />
    <glyph glyph-name="O" unicode="O" horiz-adv-x="841" 
d="M604.5 663q81.5 -46 128.5 -128t47 -185t-47 -185t-128.5 -128t-183.5 -46t-184.5 46t-129 128t-46.5 185t46.5 185t129 128t184.5 46t183.5 -46zM276 602.5q-65 -36.5 -102.5 -102t-37.5 -150.5q0 -84 37.5 -150t102.5 -102.5t145 -36.5t144.5 36.5t102 102.5t37.5 150
q0 85 -37.5 150.5t-102 102t-144.5 36.5t-145 -36.5z" />
    <glyph glyph-name="P" unicode="P" horiz-adv-x="665" 
d="M174 0h-73v700h264q117 0 182.5 -55.5t65.5 -153.5q0 -99 -65.5 -154.5t-182.5 -55.5h-191v-281zM174 349h189q84 0 130 36t46 106t-46 106t-130 36h-189v-284z" />
    <glyph glyph-name="Q" unicode="Q" horiz-adv-x="842" 
d="M604.5 663q81.5 -46 128.5 -128t47 -185q0 -66 -19.5 -124t-57.5 -103l97 -123h-85l-60 74q-46 -39 -106.5 -61t-127.5 -22q-102 0 -184.5 46t-129 128t-46.5 185t46.5 185t129 128t184.5 46t183.5 -46zM276 602.5q-65 -36.5 -102.5 -102t-37.5 -150.5q0 -84 37.5 -150
t102.5 -102.5t145 -36.5q55 0 103.5 18t86.5 52l-166 208h87l124 -156q49 71 49 167q0 85 -37.5 150.5t-102 102t-144.5 36.5t-145 -36.5z" />
    <glyph glyph-name="R" unicode="R" horiz-adv-x="672" 
d="M552.5 648.5q63.5 -51.5 63.5 -145.5q0 -90 -63.5 -142.5t-172.5 -53.5h-25l258 -307h-89l-253 306h-97v-306h-73v700h272q116 0 179.5 -51.5zM174 371h197q83 0 126.5 34t43.5 98q0 63 -44 96.5t-126 33.5h-197v-262z" />
    <glyph glyph-name="S" unicode="S" horiz-adv-x="673" 
d="M343 640q-82 0 -134 -35.5t-52 -96.5q0 -50 41 -79t126 -39l72 -9q216 -26 216 -181q0 -67 -37 -114t-100 -71t-140 -24t-150.5 25t-123.5 64l38 58q42 -32 105 -55t130 -23q89 0 145.5 34.5t56.5 98.5q0 53 -43 81.5t-130 38.5l-75 9q-98 11 -152 56.5t-54 125.5
q0 64 34.5 110t94.5 70.5t133 24.5q138 0 252 -77l-37 -59q-95 67 -216 67z" />
    <glyph glyph-name="T" unicode="T" horiz-adv-x="608" 
d="M340 632v-632h-73v632h-247v68h567v-68h-247z" />
    <glyph glyph-name="U" unicode="U" horiz-adv-x="754" 
d="M625.5 119q-37.5 -64 -102.5 -96t-147 -32t-146.5 32t-101.5 96t-37 155v426h72v-422q0 -107 59 -162t154 -55q97 0 155.5 55t58.5 162v422h73v-426q0 -91 -37.5 -155z" />
    <glyph glyph-name="V" unicode="V" horiz-adv-x="696" 
d="M304 0l-285 700h77l253 -627l254 627h75l-286 -700h-88z" />
    <glyph glyph-name="W" unicode="W" horiz-adv-x="1102" 
d="M752 0l-201 604l-201 -604h-88l-232 700h76l201 -618l205 618h80l204 -618l202 618h74l-232 -700h-88z" />
    <glyph glyph-name="X" unicode="X" horiz-adv-x="686" 
d="M654 0h-87l-225 303l-225 -303h-85l266 358l-254 342h87l212 -287l214 287h85l-255 -342z" />
    <glyph glyph-name="Y" unicode="Y" horiz-adv-x="639" 
d="M356 0h-72v298l-278 402h86l229 -336l228 336h84l-277 -403v-297z" />
    <glyph glyph-name="Z" unicode="Z" horiz-adv-x="661" 
d="M157 68h443v-68h-539v57l441 575h-435v68h532v-56z" />
    <glyph glyph-name="bracketleft" unicode="[" horiz-adv-x="371" 
d="M101 -132v832h229v-62h-160v-708h160v-62h-229z" />
    <glyph glyph-name="backslash" unicode="\" horiz-adv-x="496" 
d="M73 770l424 -870h-73l-425 870h74z" />
    <glyph glyph-name="bracketright" unicode="]" horiz-adv-x="371" 
d="M271 700v-832h-230v62h160v708h-160v62h230z" />
    <glyph glyph-name="asciicircum" unicode="^" 
d="M267 700h66l178 -373h-72l-140 304l-139 -304h-71z" />
    <glyph glyph-name="underscore" unicode="_" horiz-adv-x="468" 
d="M-3 -131v59h473v-59h-473z" />
    <glyph glyph-name="grave" unicode="`" horiz-adv-x="459" 
d="M133 694h84l109 -151h-66z" />
    <glyph glyph-name="a" unicode="a" horiz-adv-x="621" 
d="M467 0v86q-29 -44 -75 -69.5t-105 -25.5q-65 0 -119 32t-85 88t-31 125t31 125t85 88t119 32q60 0 105.5 -25t74.5 -69v86h67v-473h-67zM205 394q-40 -24 -62 -65.5t-22 -92.5q0 -50 22.5 -91.5t62 -65.5t89.5 -24q51 0 90.5 23.5t62 65t22.5 92.5q0 52 -22.5 93.5
t-62 65t-90.5 23.5q-50 0 -90 -24z" />
    <glyph glyph-name="b" unicode="b" horiz-adv-x="622" 
d="M454 449q54 -32 85 -88t31 -125t-31 -125t-85 -88t-119 -32q-59 0 -105 25t-75 69v-85h-67v720h67v-331q29 43 75 67.5t105 24.5q65 0 119 -32zM236 394.5q-40 -23.5 -62.5 -65.5t-22.5 -93t22.5 -92.5t62.5 -65t90 -23.5q51 0 91 24t62 65.5t22 91.5q0 51 -22.5 92.5
t-62.5 65.5t-90 24t-90 -23.5z" />
    <glyph glyph-name="c" unicode="c" horiz-adv-x="513" 
d="M394 461.5q46 -19.5 77 -56.5l-45 -44q-55 57 -133 57q-48 0 -87.5 -23.5t-62 -65t-22.5 -93.5t22.5 -93t62 -64.5t87.5 -23.5q77 0 135 58l43 -45q-32 -37 -77.5 -57t-98.5 -20q-71 0 -126 32t-86 88t-31 125t31 125t86 88t126 32q53 0 99 -19.5z" />
    <glyph glyph-name="d" unicode="d" horiz-adv-x="621" 
d="M391.5 456.5q45.5 -24.5 75.5 -68.5v332h67v-720h-67v86q-29 -44 -75 -69.5t-105 -25.5q-65 0 -119 32t-85 88t-31 125t31 125t85 88t119 32q59 0 104.5 -24.5zM205 394q-40 -24 -62 -65.5t-22 -92.5q0 -50 22.5 -91.5t62 -65.5t89.5 -24q51 0 90.5 23.5t62 65t22.5 92.5
q0 52 -22.5 93.5t-62 65t-90.5 23.5q-50 0 -90 -24z" />
    <glyph glyph-name="e" unicode="e" horiz-adv-x="560" 
d="M400.5 450q50.5 -31 79.5 -86t29 -125q0 -19 -1 -26h-387q7 -77 55 -120t119 -43q86 0 153 64l37 -45q-77 -78 -195 -78q-69 0 -123 31t-84.5 87t-30.5 127q0 70 30.5 126t84 87.5t120.5 31.5q63 0 113.5 -31zM174 379q-44 -43 -52 -112h318q-6 69 -49 112t-105 43
q-68 0 -112 -43z" />
    <glyph glyph-name="f" unicode="f" horiz-adv-x="436" 
d="M206 412v-412h-68v412h-111v61h111v78q0 82 39 130t120 48q72 0 130 -37l-25 -55q-21 12 -47.5 20t-52.5 8q-96 0 -96 -114v-78h195v-61h-195z" />
    <glyph glyph-name="g" unicode="g" horiz-adv-x="617" 
d="M388.5 456q45.5 -25 74.5 -70v87h67v-440q0 -76 -32.5 -130.5t-88.5 -82t-128 -27.5q-59 0 -112 18t-88 49l31 50q73 -55 168 -55q80 0 131 45t51 131v62q-28 -45 -73.5 -70t-105.5 -25q-65 0 -117.5 31t-83 86t-30.5 125t30.5 125t83 85.5t117.5 30.5q60 0 105.5 -25z
M204 394.5q-39 -23.5 -61 -64.5t-22 -90q0 -50 22 -91t61 -64.5t89 -23.5t89.5 23.5t62 64.5t22.5 91t-22.5 90.5t-62 64t-89.5 23.5t-89 -23.5z" />
    <glyph glyph-name="h" unicode="h" horiz-adv-x="598" 
d="M225.5 459.5q43.5 21.5 93.5 21.5q88 0 142.5 -51.5t54.5 -137.5v-292h-68v270q0 69 -37.5 108t-105.5 39q-64 0 -107 -41.5t-43 -107.5v-268h-67v720h67v-325q27 43 70.5 64.5z" />
    <glyph glyph-name="i" unicode="i" horiz-adv-x="243" 
d="M155.5 674q13.5 -14 13.5 -34q0 -19 -13.5 -33t-33.5 -14t-33.5 13.5t-13.5 33.5t13.5 34t33.5 14t33.5 -14zM88 0v473h67v-473h-67z" />
    <glyph glyph-name="j" unicode="j" horiz-adv-x="244" 
d="M156.5 674q13.5 -14 13.5 -34q0 -19 -13.5 -33t-33.5 -14q-19 0 -33 14t-14 33q0 20 13.5 34t33.5 14t33.5 -14zM127.5 -174.5q-29.5 -32.5 -81.5 -32.5q-18 0 -36.5 4.5t-30.5 11.5l14 58q24 -11 46 -11q51 0 51 64v553h67v-556q0 -59 -29.5 -91.5z" />
    <glyph glyph-name="k" unicode="k" horiz-adv-x="525" 
d="M228 278l189 195h85l-220 -223l223 -250h-85l-192 217h-73v-217h-67v720h67v-442h73z" />
    <glyph glyph-name="l" unicode="l" horiz-adv-x="243" 
d="M88 0v720h67v-720h-67z" />
    <glyph glyph-name="m" unicode="m" horiz-adv-x="958" 
d="M821.5 429.5q54.5 -51.5 54.5 -137.5v-292h-67v270q0 69 -38 108t-106 39q-64 0 -106.5 -41.5t-42.5 -107.5v-268h-68v270q0 69 -37.5 108t-105.5 39q-64 0 -107 -41.5t-43 -107.5v-268h-67v473h67v-79q26 44 70 65.5t94 21.5q64 0 111 -27.5t69 -77.5q25 53 73.5 79
t105.5 26q89 0 143.5 -51.5z" />
    <glyph glyph-name="n" unicode="n" horiz-adv-x="598" 
d="M461.5 429.5q54.5 -51.5 54.5 -137.5v-292h-68v270q0 69 -37.5 108t-105.5 39q-64 0 -107 -41.5t-43 -107.5v-268h-67v473h67v-79q26 44 70 65.5t94 21.5q88 0 142.5 -51.5z" />
    <glyph glyph-name="o" unicode="o" horiz-adv-x="597" 
d="M424.5 449q56.5 -32 89 -88t32.5 -125t-32.5 -125t-89.5 -88t-126 -32t-125.5 32t-88.5 88t-32 125t32 125t88.5 88t125.5 32q70 0 126.5 -32zM207.5 394.5q-40.5 -23.5 -63.5 -65t-23 -93.5t23 -93t63.5 -64.5t90.5 -23.5t91 23.5t64 64.5t23 93t-23 93.5t-64 65
t-91 23.5t-90.5 -23.5z" />
    <glyph glyph-name="p" unicode="p" horiz-adv-x="622" 
d="M454 449q54 -32 85 -88t31 -125t-31 -125t-85 -88t-119 -32q-60 0 -105.5 24.5t-74.5 68.5v-284h-67v673h67v-85q29 44 74.5 68.5t105.5 24.5q65 0 119 -32zM236 394.5q-40 -23.5 -62.5 -65.5t-22.5 -93t22.5 -92.5t62.5 -65t90 -23.5q51 0 91 24t62 65.5t22 91.5
q0 51 -22.5 92.5t-62.5 65.5t-90 24t-90 -23.5z" />
    <glyph glyph-name="q" unicode="q" horiz-adv-x="621" 
d="M392.5 456q45.5 -25 74.5 -69v86h67v-673h-67v285q-30 -44 -75.5 -69t-104.5 -25q-65 0 -119 32t-85 88t-31 125t31 125t85 88t119 32q60 0 105.5 -25zM205 394q-40 -24 -62 -65.5t-22 -92.5q0 -50 22.5 -91.5t62 -65.5t89.5 -24q51 0 90.5 23.5t62 65t22.5 92.5
q0 52 -22.5 93.5t-62 65t-90.5 23.5q-50 0 -90 -24z" />
    <glyph glyph-name="r" unicode="r" horiz-adv-x="409" 
d="M383 465l-15 -67q-34 19 -83 19q-57 0 -93.5 -41.5t-36.5 -109.5v-266h-67v473h66v-76q24 40 61 62.5t83 22.5q48 0 85 -17z" />
    <glyph glyph-name="s" unicode="s" horiz-adv-x="490" 
d="M335.5 408.5q-43.5 13.5 -88.5 13.5q-53 0 -85 -21t-32 -58q0 -30 25.5 -47t77.5 -24l57 -7q76 -8 116 -40.5t40 -87.5q0 -68 -56 -107t-149 -39q-54 0 -105.5 15t-91.5 46l30 50q33 -24 73 -38t95 -14q63 0 99 21t36 61q0 61 -104 73l-58 7q-78 9 -116 42t-38 86
q0 66 50.5 103.5t135.5 37.5q54 0 102.5 -14t83.5 -38l-26 -52q-28 18 -71.5 31.5z" />
    <glyph glyph-name="t" unicode="t" horiz-adv-x="454" 
d="M200 412v-246q0 -55 27 -83t73 -28q29 0 55.5 9.5t47.5 25.5l30 -50q-27 -22 -63 -35.5t-77 -13.5q-77 0 -118.5 43.5t-41.5 129.5v248h-106v61h106v152h67v-152h211v-61h-211z" />
    <glyph glyph-name="u" unicode="u" horiz-adv-x="592" 
d="M481.5 84.5q-28.5 -46.5 -77 -70t-107.5 -23.5q-60 0 -108.5 23.5t-77 70t-28.5 112.5v276h67v-270q0 -71 40 -109.5t107 -38.5q66 0 106 38.5t40 109.5v270h67v-276q0 -66 -28.5 -112.5z" />
    <glyph glyph-name="v" unicode="v" horiz-adv-x="520" 
d="M222 -1l-206 474h73l172 -404l172 404h71l-204 -474h-78z" />
    <glyph glyph-name="w" unicode="w" horiz-adv-x="863" 
d="M769 473h70l-181 -473h-79l-148 399l-147 -399h-79l-181 473h72l151 -402l148 402h74l149 -403z" />
    <glyph glyph-name="x" unicode="x" horiz-adv-x="510" 
d="M492 0h-82l-157 193l-157 -193h-79l194 242l-187 231h82l151 -185l150 185h80l-188 -231z" />
    <glyph glyph-name="y" unicode="y" horiz-adv-x="521" 
d="M52 -202l179 307l-220 368h76l182 -301l170 301h75l-388 -675h-74z" />
    <glyph glyph-name="z" unicode="z" horiz-adv-x="531" 
d="M153 61h317v-61h-408v49l316 363h-306v61h394v-50z" />
    <glyph glyph-name="braceleft" unicode="{" horiz-adv-x="423" 
d="M268 607.5q-29 -30.5 -27 -91.5l4 -71q4 -64 -22.5 -104.5t-79.5 -55.5q53 -16 79.5 -57t22.5 -104l-4 -70q-2 -62 27 -92.5t81 -30.5h33v-62h-34q-87 0 -133.5 49.5t-41.5 141.5l3 71q3 61 -28 92t-87 31v61q56 0 87 31t28 92l-3 72q-5 91 41.5 140.5t133.5 49.5h34v-62
h-33q-52 0 -81 -30.5z" />
    <glyph glyph-name="bar" unicode="|" horiz-adv-x="351" 
d="M142 -133v833h67v-833h-67z" />
    <glyph glyph-name="braceright" unicode="}" horiz-adv-x="423" 
d="M155 -38.5q29 30.5 27 92.5l-4 70q-4 64 22.5 104.5t79.5 56.5q-53 15 -79.5 55.5t-22.5 104.5l4 71q2 61 -27 91.5t-81 30.5h-33v62h34q87 0 133.5 -49.5t41.5 -140.5l-3 -72q-3 -61 28 -92t87 -31v-61q-56 0 -87 -31t-28 -92l3 -71q5 -92 -41.5 -141.5t-133.5 -49.5
h-34v62h33q52 0 81 30.5z" />
    <glyph glyph-name="asciitilde" unicode="~" 
d="M464 227.5q-31 -14.5 -73 -14.5q-32 0 -54.5 6t-48.5 18q-23 10 -41 15.5t-42 5.5q-27 0 -47.5 -10.5t-43.5 -33.5l-36 42q27 30 58 44.5t72 14.5q32 0 54 -6t50 -18q26 -10 43 -15t41 -5q25 0 46 10.5t44 32.5l35 -42q-26 -30 -57 -44.5z" />
    <glyph glyph-name="exclamdown" unicode="&#xa1;" horiz-adv-x="263" 
d="M93.5 387q-16.5 16 -16.5 38t16.5 39t37.5 17q22 0 38.5 -16.5t16.5 -39.5q0 -22 -16.5 -38t-38.5 -16q-21 0 -37.5 16zM162 252l10 -480h-81l10 480h61z" />
    <glyph glyph-name="cent" unicode="&#xa2;" horiz-adv-x="700" 
d="M403 593q49 -3 91 -22t73 -52l-42 -42q-52 49 -122 55v-363q70 4 124 55l40 -42q-31 -34 -73 -53t-91 -22v-107h-61v109q-61 9 -108 42.5t-73 85t-26 113.5t26 113.5t73 85t108 42.5v109h61v-107zM241 234.5q39 -48.5 101 -62.5v357q-62 -14 -101 -62.5t-39 -116.5
q0 -67 39 -115.5z" />
    <glyph glyph-name="sterling" unicode="&#xa3;" horiz-adv-x="700" 
d="M93 0v66h92v254h-92v60h92v78q0 81 30.5 137.5t83 85t117.5 28.5q57 0 103.5 -21.5t79.5 -63.5l-50 -46q-48 64 -133 64q-73 0 -117.5 -47.5t-44.5 -141.5v-73h268v-60h-268v-254h352v-66h-513z" />
    <glyph glyph-name="currency" unicode="&#xa4;" horiz-adv-x="700" 
d="M219 521q56 45 132 45q75 0 132 -45l72 73l40 -40l-73 -72q46 -61 46 -132t-46 -133l73 -71l-40 -40l-72 73q-57 -45 -132 -45q-76 0 -133 45l-71 -73l-40 40l73 71q-45 59 -45 133q0 75 45 132l-73 72l39 40zM432 210.5q37 21.5 58.5 58.5t21.5 81t-21.5 81t-58.5 58.5
t-81 21.5t-81 -21.5t-58.5 -58.5t-21.5 -81t21.5 -81t58.5 -58.5t81 -21.5t81 21.5z" />
    <glyph glyph-name="yen" unicode="&#xa5;" horiz-adv-x="700" 
d="M388 164v-164h-70v164h-202v54h202v104h-202v54h173l-234 324h83l214 -301l213 301h81l-231 -324h173v-54h-200v-104h200v-54h-200z" />
    <glyph glyph-name="brokenbar" unicode="&#xa6;" horiz-adv-x="351" 
d="M142 353v347h67v-347h-67zM142 -133v348h67v-348h-67z" />
    <glyph glyph-name="section" unicode="&#xa7;" horiz-adv-x="655" 
d="M442.5 628q-50.5 17 -105.5 17q-75 0 -122 -28.5t-47 -78.5q0 -82 156 -99l62 -5q86 -10 141 -48t55 -106q0 -84 -81 -130q71 -41 71 -116q0 -87 -71.5 -133t-178.5 -46q-72 0 -138 22t-112 57l36 55q39 -31 94.5 -51.5t119.5 -20.5q80 0 130 28.5t51 82.5q0 79 -159 98
l-66 6q-87 10 -138 49t-51 107q0 40 20.5 72.5t58.5 54.5q-69 40 -69 119q0 53 31 93t85 61t121 21q128 0 228 -71l-33 -55q-38 28 -88.5 45zM231 389q-34 -14 -53.5 -39t-19.5 -58q0 -41 39.5 -65t115.5 -33l64 -6q36 -5 61 -13q75 29 75 98q0 42 -42 66.5t-115 32.5l-68 6
q-27 3 -57 11z" />
    <glyph glyph-name="dieresis" unicode="&#xa8;" horiz-adv-x="468" 
d="M164.5 649.5q13.5 -13.5 13.5 -33.5q0 -19 -13.5 -33t-33.5 -14t-33 13.5t-13 33.5t13 33.5t33 13.5t33.5 -13.5zM370.5 649.5q13.5 -13.5 13.5 -33.5t-13.5 -33.5t-33.5 -13.5q-19 0 -33 14t-14 33q0 20 14 33.5t33 13.5q20 0 33.5 -13.5z" />
    <glyph glyph-name="copyright" unicode="&#xa9;" horiz-adv-x="947" 
d="M675 697.5q92 -53.5 146 -145t54 -199.5t-54 -199.5t-146 -145.5t-201 -54t-201 54t-146 145.5t-54 199.5t54 199.5t146 145t201 53.5t201 -53.5zM303.5 647.5q-78.5 -45.5 -124 -124t-45.5 -170.5t45.5 -170t124 -123.5t170.5 -45.5t170.5 45.5t124 123.5t45.5 170
t-45.5 170.5t-124 124t-170.5 45.5t-170.5 -45.5zM554 491q-32 17 -71 17q-41 0 -75 -19.5t-53.5 -55t-19.5 -80.5q0 -47 20 -82t54 -53.5t75 -18.5q38 0 70.5 16.5t52.5 46.5l47 -35q-28 -41 -72 -63.5t-98 -22.5q-59 0 -107.5 27t-76 75.5t-27.5 109.5t27.5 110t76 76
t107.5 27q54 0 99.5 -24t71.5 -65l-49 -33q-20 30 -52 47z" />
    <glyph glyph-name="ordfeminine" unicode="&#xaa;" horiz-adv-x="392" 
d="M292.5 613.5q38.5 -34.5 38.5 -102.5v-198h-53v48q-50 -54 -121 -54q-53 0 -85 27.5t-32 72.5t36 71t102 26h99q-1 49 -24.5 72.5t-71.5 23.5q-56 0 -101 -36l-22 41q55 43 128 43q68 0 106.5 -34.5zM229.5 366.5q27.5 14.5 47.5 37.5v62h-91q-45 0 -66.5 -15.5
t-21.5 -41.5q0 -24 19.5 -40.5t52.5 -16.5q32 0 59.5 14.5z" />
    <glyph glyph-name="logicalnot" unicode="&#xac;" 
d="M470 75l-16 137l-320 22l-49 44l365 16l65 -180z" />
    <glyph glyph-name="registered" unicode="&#xae;" horiz-adv-x="449" 
d="M326 690.5q46 -26.5 72.5 -71.5t26.5 -99q0 -53 -27 -98t-72.5 -71.5t-99.5 -26.5q-55 0 -101.5 26.5t-73.5 71.5t-27 98q0 54 27 99t73 71.5t102 26.5q54 0 100 -26.5zM304 383.5q36 21.5 57 57.5t21 79t-21 79t-56.5 57t-78.5 21q-44 0 -80 -21t-57 -57t-21 -79t21 -79
t57 -57.5t80 -21.5q42 0 78 21.5zM291.5 598q19.5 -16 19.5 -43q0 -22 -16 -37t-45 -19l62 -72h-43l-58 72h-22v-72h-35v187h84q34 0 53.5 -16zM189 528h48q17 0 27.5 7t10.5 20t-10.5 21t-27.5 8h-48v-56z" />
    <glyph glyph-name="macron" unicode="&#xaf;" horiz-adv-x="463" 
d="M381 643v-55h-298v55h298z" />
    <glyph glyph-name="degree" unicode="&#xb0;" horiz-adv-x="390" 
d="M109.5 392.5q-39.5 22.5 -62.5 61.5t-23 86q0 46 23 84.5t62.5 61.5t85.5 23q47 0 86 -23t62 -61.5t23 -84.5q0 -47 -23 -86t-62 -61.5t-86 -22.5q-46 0 -85.5 22.5zM275.5 457.5q33.5 33.5 33.5 82.5q0 47 -33.5 80.5t-80.5 33.5q-46 0 -80 -33.5t-34 -80.5
q0 -48 33.5 -82t80.5 -34t80.5 33.5z" />
    <glyph glyph-name="plusminus" unicode="&#xb1;" 
d="M269 309h-184v60h184v177h61v-177h185v-60h-185v-159h-61v159zM85 31v60h430v-60h-430z" />
    <glyph glyph-name="uni00B2" unicode="&#xb2;" horiz-adv-x="334" 
d="M159 704q59 0 93 -33t34 -86q0 -33 -14 -59.5t-42 -54.5l-106 -107h175v-51h-254v43l146 146q39 37 39 79q0 31 -20.5 51t-55.5 20q-29 0 -49.5 -12.5t-37.5 -35.5l-35 35q48 65 127 65z" />
    <glyph glyph-name="uni00B3" unicode="&#xb3;" horiz-adv-x="334" 
d="M246 675q37 -29 37 -76q0 -33 -17 -56t-48 -35q34 -11 54 -34.5t20 -55.5q0 -53 -40.5 -81t-98.5 -28q-81 0 -128 50l31 36q39 -37 94 -37q37 0 61 16.5t24 47.5q0 28 -25.5 45t-62.5 17h-51v48h52q34 0 56.5 16.5t22.5 46.5q0 27 -22 43.5t-57 16.5q-55 0 -89 -41
l-33 34q46 56 124 56q59 0 96 -29z" />
    <glyph glyph-name="acute" unicode="&#xb4;" horiz-adv-x="459" 
d="M242 694h84l-126 -151h-67z" />
    <glyph glyph-name="uni03BC" unicode="&#x3bc;" horiz-adv-x="598" 
d="M83 473h67v-270q0 -69 38 -108t105 -39q64 0 107 41.5t43 107.5v268h67v-473h-66v79q-27 -44 -70.5 -66t-93.5 -22q-81 0 -131 48v-239h-66v673z" />
    <glyph glyph-name="paragraph" unicode="&#xb6;" horiz-adv-x="571" 
d="M271 364q-94 0 -146.5 44.5t-52.5 123.5t52 123.5t146 44.5h54v-700h-53v364zM376 700h53v-700h-53v700z" />
    <glyph glyph-name="periodcentered" unicode="&#xb7;" horiz-adv-x="369" 
d="M223 302.5q16 -16.5 16 -38.5t-16 -38.5t-38 -16.5t-38.5 16.5t-16.5 38.5q0 23 16.5 39t38.5 16t38 -16.5z" />
    <glyph glyph-name="cedilla" unicode="&#xb8;" horiz-adv-x="480" 
d="M180 -162l54 165h66l-51 -165h-69z" />
    <glyph glyph-name="uni00B9" unicode="&#xb9;" horiz-adv-x="272" 
d="M138 313v316l-113 -46v54l167 67v-391h-54z" />
    <glyph glyph-name="ordmasculine" unicode="&#xba;" horiz-adv-x="426" 
d="M301.5 626q39.5 -22 62 -61t22.5 -87t-22.5 -87t-62 -61.5t-88.5 -22.5t-88.5 22.5t-62 61.5t-22.5 87t22.5 87t62 61t88.5 22t88.5 -22zM130 564q-33 -34 -33 -86t33 -86t83 -34t84 34t34 86t-34 86t-84 34t-83 -34z" />
    <glyph glyph-name="onequarter" unicode="&#xbc;" horiz-adv-x="800" 
d="M138 629l-113 -46v54l167 67v-391h-54v316zM577 700h67l-442 -700h-66zM663 78h-182v39l137 269h60l-133 -259h118v84l13 25h42v-109h63v-49h-63v-78h-55v78z" />
    <glyph glyph-name="onehalf" unicode="&#xbd;" horiz-adv-x="830" 
d="M138 313v316l-113 -46v54l167 67v-391h-54zM136 0l441 700h67l-442 -700h-66zM657 391q58 0 92 -33t34 -86q0 -33 -14.5 -60t-42.5 -54l-106 -107h176v-51h-253v43l145 146q39 39 39 79q0 31 -20.5 51t-54.5 20q-53 0 -88 -48l-35 35q46 65 128 65z" />
    <glyph glyph-name="threequarters" unicode="&#xbe;" horiz-adv-x="852" 
d="M246 675q37 -29 37 -76q0 -33 -17 -56t-48 -35q34 -11 54 -34.5t20 -55.5q0 -53 -40.5 -81t-98.5 -28q-81 0 -128 50l31 36q39 -37 94 -37q37 0 61 16.5t24 47.5q0 28 -25.5 45t-62.5 17h-51v48h52q34 0 56.5 16.5t22.5 46.5q0 27 -22 43.5t-57 16.5q-55 0 -89 -41
l-33 34q46 56 124 56q59 0 96 -29zM188 0l441 700h67l-442 -700h-66zM832 127v-49h-63v-78h-54v78h-183v39l137 269h60l-133 -259h119v84l18 25h36v-109h63z" />
    <glyph glyph-name="questiondown" unicode="&#xbf;" horiz-adv-x="427" 
d="M251.5 387.5q-16.5 16.5 -16.5 38.5t16.5 38.5t38.5 16.5t38 -16.5t16 -38.5t-16 -38.5t-38 -16.5t-38.5 16.5zM321 95h-28q-87 0 -136.5 -35.5t-49.5 -99.5q0 -58 50 -93t132 -35q28 0 64 4l6 -69q-35 -5 -74 -5q-76 0 -133 24t-88 68.5t-31 102.5q0 86 58 138t164 62
l4 95h62v-157z" />
    <glyph glyph-name="Agrave" unicode="&#xc0;" horiz-adv-x="708" 
d="M310 902l109 -152h-66l-127 152h84zM612 0l-81 199h-355l-82 -199h-75l291 700h88l291 -700h-77zM502 267l-149 363l-150 -363h299z" />
    <glyph glyph-name="Aacute" unicode="&#xc1;" horiz-adv-x="708" 
d="M393 902h84l-126 -152h-66zM612 0l-81 199h-355l-82 -199h-75l291 700h88l291 -700h-77zM502 267l-149 363l-150 -363h299z" />
    <glyph glyph-name="Acircumflex" unicode="&#xc2;" horiz-adv-x="708" 
d="M354 851l-94 -99h-71l122 144h86l122 -144h-70zM612 0l-81 199h-355l-82 -199h-75l291 700h88l291 -700h-77zM502 267l-149 363l-150 -363h299z" />
    <glyph glyph-name="Atilde" unicode="&#xc3;" horiz-adv-x="708" 
d="M227.5 862.5q25.5 13.5 60.5 13.5q24 0 41 -6t40 -18q14 -9 25.5 -13.5t25.5 -4.5q20 0 36 9.5t32 28.5l40 -39q-22 -29 -48 -42.5t-60 -13.5q-24 0 -41 6t-38 18q-18 9 -29 13.5t-24 4.5q-20 0 -36 -9.5t-32 -28.5l-39 38q21 30 46.5 43.5zM612 0l-81 199h-355l-82 -199
h-75l291 700h88l291 -700h-77zM502 267l-149 363l-150 -363h299z" />
    <glyph glyph-name="Adieresis" unicode="&#xc4;" horiz-adv-x="708" 
d="M284 857q14 -14 14 -34t-13.5 -33t-33.5 -13t-33.5 13t-13.5 33t13.5 34t33.5 14q19 0 33 -14zM490.5 857q13.5 -14 13.5 -34t-13.5 -33t-33.5 -13t-33.5 13t-13.5 33t14 34t33 14q20 0 33.5 -14zM612 0l-81 199h-355l-82 -199h-75l291 700h88l291 -700h-77zM502 267
l-149 363l-150 -363h299z" />
    <glyph glyph-name="Aring" unicode="&#xc5;" horiz-adv-x="708" 
d="M275.5 773q-32.5 32 -32.5 78q0 45 32.5 77.5t78.5 32.5t78.5 -32.5t32.5 -77.5q0 -46 -32.5 -78t-78.5 -32t-78.5 32zM401.5 803q19.5 20 19.5 48t-19.5 47.5t-47.5 19.5q-27 0 -46.5 -19.5t-19.5 -47.5t19.5 -48t46.5 -20q28 0 47.5 20zM612 0l-81 199h-355l-82 -199
h-75l291 700h88l291 -700h-77zM502 267l-149 363l-150 -363h299z" />
    <glyph glyph-name="AE" unicode="&#xc6;" horiz-adv-x="1136" 
d="M567 0v188h-323l-142 -188h-87l530 700h506v-67h-412v-247h399v-67h-399v-251h416v-68h-488zM567 616l-272 -360h272v360z" />
    <glyph glyph-name="Ccedilla" unicode="&#xc7;" horiz-adv-x="763" 
d="M588 670q76 -39 118 -107l-61 -40q-36 54 -94.5 85t-129.5 31q-80 0 -145 -36.5t-102.5 -102t-37.5 -150.5t37.5 -150.5t102.5 -102t145 -36.5q70 0 129.5 31t94.5 85l59 -43q-40 -59 -104.5 -96.5t-142.5 -44.5l-49 -155h-72l51 155q-93 7 -167.5 54.5t-116.5 126.5
t-42 176q0 103 46.5 185t129 128t184.5 46q91 0 167 -39z" />
    <glyph glyph-name="Egrave" unicode="&#xc8;" horiz-adv-x="670" 
d="M296 902l109 -152h-66l-127 152h84zM101 0v700h484v-67h-411v-247h398v-67h-398v-251h415v-68h-488z" />
    <glyph glyph-name="Eacute" unicode="&#xc9;" horiz-adv-x="670" 
d="M380 902h84l-126 -152h-67zM101 0v700h484v-67h-411v-247h398v-67h-398v-251h415v-68h-488z" />
    <glyph glyph-name="Ecircumflex" unicode="&#xca;" horiz-adv-x="670" 
d="M341 851l-95 -99h-71l122 144h87l121 -144h-70zM101 0v700h484v-67h-411v-247h398v-67h-398v-251h415v-68h-488z" />
    <glyph glyph-name="Edieresis" unicode="&#xcb;" horiz-adv-x="670" 
d="M270 857q14 -14 14 -34t-13.5 -33t-33.5 -13t-33 13t-13 33t13 34t33 14q19 0 33 -14zM477 857q14 -14 14 -34t-14 -33t-34 -13t-33.5 13t-13.5 33t14 34t33 14q20 0 34 -14zM101 0v700h484v-67h-411v-247h398v-67h-398v-251h415v-68h-488z" />
    <glyph glyph-name="Igrave" unicode="&#xcc;" horiz-adv-x="275" 
d="M94 902l108 -152h-66l-126 152h84zM101 0v700h73v-700h-73z" />
    <glyph glyph-name="Iacute" unicode="&#xcd;" horiz-adv-x="275" 
d="M177 902h84l-127 -152h-66zM101 0v700h73v-700h-73z" />
    <glyph glyph-name="Icircumflex" unicode="&#xce;" horiz-adv-x="275" 
d="M137 851l-94 -99h-72l123 144h87l122 -144h-71zM101 0v700h73v-700h-73z" />
    <glyph glyph-name="Idieresis" unicode="&#xcf;" horiz-adv-x="275" 
d="M67.5 857q13.5 -14 13.5 -34t-13.5 -33t-33.5 -13t-33.5 13t-13.5 33t14 34t33 14q20 0 33.5 -14zM274 857q14 -14 14 -34t-14 -33t-34 -13t-33 13t-13 33t13 34t33 14t34 -14zM101 0v700h73v-700h-73z" />
    <glyph glyph-name="Eth" unicode="&#xd0;" horiz-adv-x="880" 
d="M642 657q85 -43 131 -122t46 -185t-46 -185t-131 -122t-199 -43h-260v319h-122v68h122v313h260q114 0 199 -43zM255 319v-251h188q96 0 163.5 34.5t102.5 98.5t35 149q0 130 -78.5 206t-222.5 76h-188v-245h205v-68h-205z" />
    <glyph glyph-name="Ntilde" unicode="&#xd1;" horiz-adv-x="785" 
d="M266.5 862.5q25.5 13.5 59.5 13.5q24 0 41 -6t40 -18q15 -9 26.5 -13.5t25.5 -4.5q20 0 36 9.5t32 28.5l39 -39q-22 -29 -47.5 -42.5t-59.5 -13.5q-24 0 -40 6t-40 18q-18 10 -28.5 14t-24.5 4q-19 0 -35 -9t-33 -29l-39 38q22 30 47.5 43.5zM618 0l-444 577v-577h-73
v700h66l444 -577v577h73v-700h-66z" />
    <glyph glyph-name="Ograve" unicode="&#xd2;" horiz-adv-x="841" 
d="M377 902l108 -152h-66l-126 152h84zM604.5 663q81.5 -46 128.5 -128t47 -185t-47 -185t-128.5 -128t-183.5 -46t-184.5 46t-129 128t-46.5 185t46.5 185t129 128t184.5 46t183.5 -46zM276 602.5q-65 -36.5 -102.5 -102t-37.5 -150.5q0 -84 37.5 -150t102.5 -102.5
t145 -36.5t144.5 36.5t102 102.5t37.5 150q0 85 -37.5 150.5t-102 102t-144.5 36.5t-145 -36.5z" />
    <glyph glyph-name="Oacute" unicode="&#xd3;" horiz-adv-x="841" 
d="M460 902h84l-126 -152h-67zM604.5 663q81.5 -46 128.5 -128t47 -185t-47 -185t-128.5 -128t-183.5 -46t-184.5 46t-129 128t-46.5 185t46.5 185t129 128t184.5 46t183.5 -46zM276 602.5q-65 -36.5 -102.5 -102t-37.5 -150.5q0 -84 37.5 -150t102.5 -102.5t145 -36.5
t144.5 36.5t102 102.5t37.5 150q0 85 -37.5 150.5t-102 102t-144.5 36.5t-145 -36.5z" />
    <glyph glyph-name="Ocircumflex" unicode="&#xd4;" horiz-adv-x="841" 
d="M421 851l-95 -99h-71l122 144h87l122 -144h-71zM604.5 663q81.5 -46 128.5 -128t47 -185t-47 -185t-128.5 -128t-183.5 -46t-184.5 46t-129 128t-46.5 185t46.5 185t129 128t184.5 46t183.5 -46zM276 602.5q-65 -36.5 -102.5 -102t-37.5 -150.5q0 -84 37.5 -150
t102.5 -102.5t145 -36.5t144.5 36.5t102 102.5t37.5 150q0 85 -37.5 150.5t-102 102t-144.5 36.5t-145 -36.5z" />
    <glyph glyph-name="Otilde" unicode="&#xd5;" horiz-adv-x="841" 
d="M293.5 862.5q25.5 13.5 60.5 13.5q24 0 41 -6t40 -18q15 -9 26.5 -13.5t25.5 -4.5q19 0 35 9t33 29l40 -39q-23 -29 -48.5 -42.5t-59.5 -13.5q-24 0 -40 6t-40 18q-18 10 -28.5 14t-24.5 4q-20 0 -36 -9.5t-32 -28.5l-39 38q21 30 46.5 43.5zM604.5 663
q81.5 -46 128.5 -128t47 -185t-47 -185t-128.5 -128t-183.5 -46t-184.5 46t-129 128t-46.5 185t46.5 185t129 128t184.5 46t183.5 -46zM276 602.5q-65 -36.5 -102.5 -102t-37.5 -150.5q0 -84 37.5 -150t102.5 -102.5t145 -36.5t144.5 36.5t102 102.5t37.5 150
q0 85 -37.5 150.5t-102 102t-144.5 36.5t-145 -36.5z" />
    <glyph glyph-name="Odieresis" unicode="&#xd6;" horiz-adv-x="841" 
d="M350.5 857q13.5 -14 13.5 -34t-13.5 -33t-33.5 -13t-33 13t-13 33t13.5 34t32.5 14q20 0 33.5 -14zM557 857q14 -14 14 -34t-13.5 -33t-33.5 -13t-33.5 13t-13.5 33t13.5 34t33.5 14q19 0 33 -14zM604.5 663q81.5 -46 128.5 -128t47 -185t-47 -185t-128.5 -128
t-183.5 -46t-184.5 46t-129 128t-46.5 185t46.5 185t129 128t184.5 46t183.5 -46zM276 602.5q-65 -36.5 -102.5 -102t-37.5 -150.5q0 -84 37.5 -150t102.5 -102.5t145 -36.5t144.5 36.5t102 102.5t37.5 150q0 85 -37.5 150.5t-102 102t-144.5 36.5t-145 -36.5z" />
    <glyph glyph-name="multiply" unicode="&#xd7;" 
d="M256 263l-148 148l45 44l147 -147l149 148l43 -43l-149 -149l149 -149l-44 -43l-149 148l-147 -146l-43 43z" />
    <glyph glyph-name="Oslash" unicode="&#xd8;" horiz-adv-x="841" 
d="M547.5 688.5q59.5 -20.5 105.5 -59.5l80 80l46 -47l-78 -79q38 -46 58.5 -105.5t20.5 -127.5q0 -103 -47 -185t-128.5 -128t-183.5 -46q-68 0 -127.5 20.5t-105.5 59.5l-78 -79l-48 46l78 79q-38 47 -58.5 106.5t-20.5 126.5q0 103 46.5 185t129 128t184.5 46
q67 0 126.5 -20.5zM276 602.5q-65 -36.5 -102.5 -102t-37.5 -150.5q0 -105 58 -180l407 407q-36 30 -82 46t-98 16q-80 0 -145 -36.5zM647 530l-408 -407q76 -62 182 -62q80 0 144.5 36.5t102 102.5t37.5 150q0 105 -58 180z" />
    <glyph glyph-name="Ugrave" unicode="&#xd9;" horiz-adv-x="754" 
d="M333 902l109 -152h-67l-126 152h84zM625.5 119q-37.5 -64 -102.5 -96t-147 -32t-146.5 32t-101.5 96t-37 155v426h72v-422q0 -107 59 -162t154 -55q97 0 155.5 55t58.5 162v422h73v-426q0 -91 -37.5 -155z" />
    <glyph glyph-name="Uacute" unicode="&#xda;" horiz-adv-x="754" 
d="M416 902h84l-127 -152h-65zM625.5 119q-37.5 -64 -102.5 -96t-147 -32t-146.5 32t-101.5 96t-37 155v426h72v-422q0 -107 59 -162t154 -55q97 0 155.5 55t58.5 162v422h73v-426q0 -91 -37.5 -155z" />
    <glyph glyph-name="Ucircumflex" unicode="&#xdb;" horiz-adv-x="754" 
d="M376 851l-94 -99h-70l122 144h86l122 -144h-71zM625.5 119q-37.5 -64 -102.5 -96t-147 -32t-146.5 32t-101.5 96t-37 155v426h72v-422q0 -107 59 -162t154 -55q97 0 155.5 55t58.5 162v422h73v-426q0 -91 -37.5 -155z" />
    <glyph glyph-name="Udieresis" unicode="&#xdc;" horiz-adv-x="754" 
d="M307 857q14 -14 14 -34t-13.5 -33t-33.5 -13t-33.5 13t-13.5 33t13.5 34t33.5 14q19 0 33 -14zM513 857q14 -14 14 -34t-14 -33t-34 -13t-33 13t-13 33t13.5 34t32.5 14q20 0 34 -14zM625.5 119q-37.5 -64 -102.5 -96t-147 -32t-146.5 32t-101.5 96t-37 155v426h72v-422
q0 -107 59 -162t154 -55q97 0 155.5 55t58.5 162v422h73v-426q0 -91 -37.5 -155z" />
    <glyph glyph-name="Yacute" unicode="&#xdd;" horiz-adv-x="639" 
d="M360 902h84l-126 -152h-67zM356 0h-72v298l-278 402h86l229 -336l228 336h84l-277 -403v-297z" />
    <glyph glyph-name="Thorn" unicode="&#xde;" horiz-adv-x="665" 
d="M365 567q117 0 182.5 -55t65.5 -154t-65.5 -154.5t-182.5 -55.5h-191v-148h-73v700h73v-133h191zM174 216h189q84 0 130 36t46 106t-46 106t-130 36h-189v-284z" />
    <glyph glyph-name="germandbls" unicode="&#xdf;" horiz-adv-x="609" 
d="M143 668q59 61 168 61q64 0 116 -24t81.5 -67.5t29.5 -99.5q0 -64 -32 -108.5t-83 -61.5q58 -15 96.5 -63t38.5 -111q0 -62 -27.5 -108t-75 -70.5t-105.5 -24.5q-67 0 -120 24l14 60q44 -21 96 -21q67 0 108.5 37.5t41.5 104.5q0 66 -46.5 102t-123.5 36h-34v60h22
q70 0 116 32.5t46 101.5q0 65 -45.5 101t-114.5 36q-72 0 -115.5 -43t-43.5 -117v-505h-67v509q0 98 59 159z" />
    <glyph glyph-name="agrave" unicode="&#xe0;" horiz-adv-x="621" 
d="M253 694l108 -151h-65l-127 151h84zM467 0v86q-29 -44 -75 -69.5t-105 -25.5q-65 0 -119 32t-85 88t-31 125t31 125t85 88t119 32q60 0 105.5 -25t74.5 -69v86h67v-473h-67zM205 394q-40 -24 -62 -65.5t-22 -92.5q0 -50 22.5 -91.5t62 -65.5t89.5 -24q51 0 90.5 23.5
t62 65t22.5 92.5q0 52 -22.5 93.5t-62 65t-90.5 23.5q-50 0 -90 -24z" />
    <glyph glyph-name="aacute" unicode="&#xe1;" horiz-adv-x="621" 
d="M349 694h84l-126 -151h-66zM467 0v86q-29 -44 -75 -69.5t-105 -25.5q-65 0 -119 32t-85 88t-31 125t31 125t85 88t119 32q60 0 105.5 -25t74.5 -69v86h67v-473h-67zM205 394q-40 -24 -62 -65.5t-22 -92.5q0 -50 22.5 -91.5t62 -65.5t89.5 -24q51 0 90.5 23.5t62 65
t22.5 92.5q0 52 -22.5 93.5t-62 65t-90.5 23.5q-50 0 -90 -24z" />
    <glyph glyph-name="acircumflex" unicode="&#xe2;" horiz-adv-x="621" 
d="M304 644l-95 -99h-70l122 143h87l122 -143h-72zM467 0v86q-29 -44 -75 -69.5t-105 -25.5q-65 0 -119 32t-85 88t-31 125t31 125t85 88t119 32q60 0 105.5 -25t74.5 -69v86h67v-473h-67zM205 394q-40 -24 -62 -65.5t-22 -92.5q0 -50 22.5 -91.5t62 -65.5t89.5 -24
q51 0 90.5 23.5t62 65t22.5 92.5q0 52 -22.5 93.5t-62 65t-90.5 23.5q-50 0 -90 -24z" />
    <glyph glyph-name="atilde" unicode="&#xe3;" horiz-adv-x="621" 
d="M182.5 655q25.5 14 59.5 14q24 0 41 -6t40 -18q15 -9 26.5 -13.5t25.5 -4.5q19 0 35 9t33 29l40 -38q-23 -30 -48.5 -44t-59.5 -14q-25 0 -41.5 6.5t-38.5 18.5q-18 10 -28.5 14t-24.5 4q-20 0 -36 -9.5t-32 -28.5l-39 39q22 28 47.5 42zM467 0v86q-29 -44 -75 -69.5
t-105 -25.5q-65 0 -119 32t-85 88t-31 125t31 125t85 88t119 32q60 0 105.5 -25t74.5 -69v86h67v-473h-67zM205 394q-40 -24 -62 -65.5t-22 -92.5q0 -50 22.5 -91.5t62 -65.5t89.5 -24q51 0 90.5 23.5t62 65t22.5 92.5q0 52 -22.5 93.5t-62 65t-90.5 23.5q-50 0 -90 -24z
" />
    <glyph glyph-name="adieresis" unicode="&#xe4;" horiz-adv-x="621" 
d="M234.5 649.5q13.5 -13.5 13.5 -33.5q0 -19 -13.5 -33t-33.5 -14t-33.5 13.5t-13.5 33.5t13.5 33.5t33.5 13.5t33.5 -13.5zM440 649.5q14 -13.5 14 -33.5t-14 -33.5t-34 -13.5q-19 0 -32.5 13.5t-13.5 33.5t13.5 33.5t32.5 13.5q20 0 34 -13.5zM467 0v86
q-29 -44 -75 -69.5t-105 -25.5q-65 0 -119 32t-85 88t-31 125t31 125t85 88t119 32q60 0 105.5 -25t74.5 -69v86h67v-473h-67zM205 394q-40 -24 -62 -65.5t-22 -92.5q0 -50 22.5 -91.5t62 -65.5t89.5 -24q51 0 90.5 23.5t62 65t22.5 92.5q0 52 -22.5 93.5t-62 65t-90.5 23.5
q-50 0 -90 -24z" />
    <glyph glyph-name="aring" unicode="&#xe5;" horiz-adv-x="621" 
d="M225.5 566q-32.5 32 -32.5 78q0 45 32.5 77t78.5 32t78.5 -32t32.5 -77q0 -46 -32.5 -78t-78.5 -32t-78.5 32zM351 596q20 20 20 48t-20 47.5t-47 19.5q-28 0 -47.5 -19.5t-19.5 -47.5t19.5 -48t47.5 -20q27 0 47 20zM467 0v86q-29 -44 -75 -69.5t-105 -25.5
q-65 0 -119 32t-85 88t-31 125t31 125t85 88t119 32q60 0 105.5 -25t74.5 -69v86h67v-473h-67zM205 394q-40 -24 -62 -65.5t-22 -92.5q0 -50 22.5 -91.5t62 -65.5t89.5 -24q51 0 90.5 23.5t62 65t22.5 92.5q0 52 -22.5 93.5t-62 65t-90.5 23.5q-50 0 -90 -24z" />
    <glyph glyph-name="ae" unicode="&#xe6;" horiz-adv-x="905" 
d="M744.5 450q50.5 -31 79.5 -86t29 -125q0 -19 -1 -26h-387q7 -77 55.5 -120t118.5 -43q87 0 154 64l36 -45q-77 -78 -194 -78q-63 0 -113.5 26t-82.5 72q-35 -44 -87 -71t-118 -27q-84 0 -133 38.5t-49 101.5t50.5 100t145.5 37h148q0 78 -35 115.5t-109 37.5
q-77 0 -142 -50l-30 51q76 59 181 59q143 0 180 -109q28 51 78.5 80t111.5 29q63 0 113.5 -31zM519 378.5q-44 -42.5 -53 -111.5h319q-7 69 -50 111.5t-105 42.5q-67 0 -111 -42.5zM339 73.5q46 23.5 75 63.5q-14 32 -17 77h-141q-69 0 -101 -22t-32 -60q0 -36 32.5 -59
t89.5 -23q48 0 94 23.5z" />
    <glyph glyph-name="ccedilla" unicode="&#xe7;" horiz-adv-x="513" 
d="M394 461.5q46 -19.5 77 -56.5l-45 -44q-55 57 -133 57q-48 0 -87.5 -23.5t-62 -65t-22.5 -93.5t22.5 -93t62 -64.5t87.5 -23.5q77 0 135 58l43 -45q-54 -65 -148 -74l-48 -156h-69l51 156q-61 8 -107.5 41.5t-72 85.5t-25.5 115q0 69 31 125t86 88t126 32q53 0 99 -19.5z
" />
    <glyph glyph-name="egrave" unicode="&#xe8;" horiz-adv-x="560" 
d="M234 694l109 -151h-67l-126 151h84zM400.5 450q50.5 -31 79.5 -86t29 -125q0 -19 -1 -26h-387q7 -77 55 -120t119 -43q86 0 153 64l37 -45q-77 -78 -195 -78q-69 0 -123 31t-84.5 87t-30.5 127q0 70 30.5 126t84 87.5t120.5 31.5q63 0 113.5 -31zM174 379
q-44 -43 -52 -112h318q-6 69 -49 112t-105 43q-68 0 -112 -43z" />
    <glyph glyph-name="eacute" unicode="&#xe9;" horiz-adv-x="560" 
d="M331 694h84l-127 -151h-66zM400.5 450q50.5 -31 79.5 -86t29 -125q0 -19 -1 -26h-387q7 -77 55 -120t119 -43q86 0 153 64l37 -45q-77 -78 -195 -78q-69 0 -123 31t-84.5 87t-30.5 127q0 70 30.5 126t84 87.5t120.5 31.5q63 0 113.5 -31zM174 379q-44 -43 -52 -112h318
q-6 69 -49 112t-105 43q-68 0 -112 -43z" />
    <glyph glyph-name="ecircumflex" unicode="&#xea;" horiz-adv-x="560" 
d="M285 644l-94 -99h-71l122 143h86l122 -143h-70zM400.5 450q50.5 -31 79.5 -86t29 -125q0 -19 -1 -26h-387q7 -77 55 -120t119 -43q86 0 153 64l37 -45q-77 -78 -195 -78q-69 0 -123 31t-84.5 87t-30.5 127q0 70 30.5 126t84 87.5t120.5 31.5q63 0 113.5 -31zM174 379
q-44 -43 -52 -112h318q-6 69 -49 112t-105 43q-68 0 -112 -43z" />
    <glyph glyph-name="edieresis" unicode="&#xeb;" horiz-adv-x="560" 
d="M215.5 649.5q13.5 -13.5 13.5 -33.5q0 -19 -13.5 -33t-33.5 -14t-33.5 13.5t-13.5 33.5t13.5 33.5t33.5 13.5t33.5 -13.5zM421.5 649.5q13.5 -13.5 13.5 -33.5t-13.5 -33.5t-33.5 -13.5q-19 0 -33 14t-14 33q0 20 14 33.5t33 13.5q20 0 33.5 -13.5zM400.5 450
q50.5 -31 79.5 -86t29 -125q0 -19 -1 -26h-387q7 -77 55 -120t119 -43q86 0 153 64l37 -45q-77 -78 -195 -78q-69 0 -123 31t-84.5 87t-30.5 127q0 70 30.5 126t84 87.5t120.5 31.5q63 0 113.5 -31zM174 379q-44 -43 -52 -112h318q-6 69 -49 112t-105 43q-68 0 -112 -43z
" />
    <glyph glyph-name="igrave" unicode="&#xec;" horiz-adv-x="243" 
d="M71 694l109 -151h-67l-127 151h85zM88 0v473h67v-473h-67z" />
    <glyph glyph-name="iacute" unicode="&#xed;" horiz-adv-x="243" 
d="M168 694h84l-127 -151h-66zM88 0v473h67v-473h-67z" />
    <glyph glyph-name="icircumflex" unicode="&#xee;" horiz-adv-x="243" 
d="M122 644l-94 -99h-72l122 143h87l122 -143h-71zM88 0v473h67v-473h-67z" />
    <glyph glyph-name="idieresis" unicode="&#xef;" horiz-adv-x="243" 
d="M51.5 649.5q13.5 -13.5 13.5 -33.5t-13.5 -33.5t-33.5 -13.5t-33.5 14t-13.5 33q0 20 13.5 33.5t33.5 13.5t33.5 -13.5zM258.5 649.5q13.5 -13.5 13.5 -33.5q0 -19 -13.5 -33t-33.5 -14t-33.5 13.5t-13.5 33.5t13.5 33.5t33.5 13.5t33.5 -13.5zM88 0v473h67v-473h-67z
" />
    <glyph glyph-name="eth" unicode="&#xf0;" horiz-adv-x="595" 
d="M358 613q83 -73 134.5 -171.5t51.5 -201.5q0 -70 -32.5 -126.5t-88.5 -89.5t-125 -33t-125.5 31.5t-88.5 86.5t-32 123q0 67 31 122t84 86.5t118 31.5q49 0 90.5 -18.5t70.5 -52.5q-44 98 -144 179l-127 -75l-25 40l110 65q-48 33 -112 63l32 52q72 -31 139 -81l120 71
l25 -40zM207.5 386q-40.5 -23 -63.5 -63t-23 -91t23 -91.5t63.5 -63.5t90.5 -23t91 23t64 63.5t23 91.5t-23 91t-64 63t-91 23t-90.5 -23z" />
    <glyph glyph-name="ntilde" unicode="&#xf1;" horiz-adv-x="598" 
d="M185.5 655q25.5 14 59.5 14q24 0 41 -6t40 -18q14 -9 25.5 -13.5t25.5 -4.5q20 0 36 9.5t32 28.5l40 -38q-22 -30 -47.5 -44t-60.5 -14q-24 0 -41.5 6.5t-37.5 18.5q-18 9 -29 13.5t-24 4.5q-20 0 -36 -9.5t-32 -28.5l-39 39q22 28 47.5 42zM461.5 429.5
q54.5 -51.5 54.5 -137.5v-292h-68v270q0 69 -37.5 108t-105.5 39q-64 0 -107 -41.5t-43 -107.5v-268h-67v473h67v-79q26 44 70 65.5t94 21.5q88 0 142.5 -51.5z" />
    <glyph glyph-name="ograve" unicode="&#xf2;" horiz-adv-x="597" 
d="M247 694l109 -151h-66l-127 151h84zM424.5 449q56.5 -32 89 -88t32.5 -125t-32.5 -125t-89.5 -88t-126 -32t-125.5 32t-88.5 88t-32 125t32 125t88.5 88t125.5 32q70 0 126.5 -32zM207.5 394.5q-40.5 -23.5 -63.5 -65t-23 -93.5t23 -93t63.5 -64.5t90.5 -23.5t91 23.5
t64 64.5t23 93t-23 93.5t-64 65t-91 23.5t-90.5 -23.5z" />
    <glyph glyph-name="oacute" unicode="&#xf3;" horiz-adv-x="597" 
d="M344 694h84l-126 -151h-67zM424.5 449q56.5 -32 89 -88t32.5 -125t-32.5 -125t-89.5 -88t-126 -32t-125.5 32t-88.5 88t-32 125t32 125t88.5 88t125.5 32q70 0 126.5 -32zM207.5 394.5q-40.5 -23.5 -63.5 -65t-23 -93.5t23 -93t63.5 -64.5t90.5 -23.5t91 23.5t64 64.5
t23 93t-23 93.5t-64 65t-91 23.5t-90.5 -23.5z" />
    <glyph glyph-name="ocircumflex" unicode="&#xf4;" horiz-adv-x="597" 
d="M298 644l-94 -99h-70l121 143h87l122 -143h-71zM424.5 449q56.5 -32 89 -88t32.5 -125t-32.5 -125t-89.5 -88t-126 -32t-125.5 32t-88.5 88t-32 125t32 125t88.5 88t125.5 32q70 0 126.5 -32zM207.5 394.5q-40.5 -23.5 -63.5 -65t-23 -93.5t23 -93t63.5 -64.5t90.5 -23.5
t91 23.5t64 64.5t23 93t-23 93.5t-64 65t-91 23.5t-90.5 -23.5z" />
    <glyph glyph-name="otilde" unicode="&#xf5;" horiz-adv-x="597" 
d="M177.5 655q25.5 14 59.5 14q24 0 41 -6t40 -18q14 -9 25.5 -13.5t25.5 -4.5q20 0 36 9.5t32 28.5l40 -38q-22 -30 -47.5 -44t-60.5 -14q-24 0 -41.5 6.5t-37.5 18.5q-18 9 -29 13.5t-24 4.5q-20 0 -36 -9.5t-32 -28.5l-39 39q22 28 47.5 42zM424.5 449q56.5 -32 89 -88
t32.5 -125t-32.5 -125t-89.5 -88t-126 -32t-125.5 32t-88.5 88t-32 125t32 125t88.5 88t125.5 32q70 0 126.5 -32zM207.5 394.5q-40.5 -23.5 -63.5 -65t-23 -93.5t23 -93t63.5 -64.5t90.5 -23.5t91 23.5t64 64.5t23 93t-23 93.5t-64 65t-91 23.5t-90.5 -23.5z" />
    <glyph glyph-name="odieresis" unicode="&#xf6;" horiz-adv-x="597" 
d="M228.5 649.5q13.5 -13.5 13.5 -33.5t-13.5 -33.5t-33.5 -13.5q-19 0 -33 14t-14 33q0 20 14 33.5t33 13.5q20 0 33.5 -13.5zM435 649q14 -14 14 -33t-14 -33t-34 -14q-19 0 -32.5 13.5t-13.5 33.5t13.5 33.5t32.5 13.5q20 0 34 -14zM424.5 449q56.5 -32 89 -88t32.5 -125
t-32.5 -125t-89.5 -88t-126 -32t-125.5 32t-88.5 88t-32 125t32 125t88.5 88t125.5 32q70 0 126.5 -32zM207.5 394.5q-40.5 -23.5 -63.5 -65t-23 -93.5t23 -93t63.5 -64.5t90.5 -23.5t91 23.5t64 64.5t23 93t-23 93.5t-64 65t-91 23.5t-90.5 -23.5z" />
    <glyph glyph-name="divide" unicode="&#xf7;" 
d="M333 455.5q14 -13.5 14 -32.5q0 -18 -14 -32t-32 -14q-19 0 -33 14t-14 32q0 19 14 32.5t33 13.5q18 0 32 -13.5zM85 235v59h430v-59h-430zM333 138.5q14 -13.5 14 -32.5q0 -18 -14 -32t-32 -14q-19 0 -33 14t-14 32q0 19 14 32.5t33 13.5q18 0 32 -13.5z" />
    <glyph glyph-name="oslash" unicode="&#xf8;" horiz-adv-x="597" 
d="M381.5 467.5q39.5 -13.5 70.5 -37.5l57 57l41 -40l-57 -57q25 -31 39 -70.5t14 -83.5q0 -69 -32.5 -125t-89.5 -88t-126 -32q-87 0 -154 51l-56 -57l-40 40l56 57q-25 31 -38.5 70.5t-13.5 83.5q0 69 32 125t88.5 88t125.5 32q44 0 83.5 -13.5zM207.5 394.5
q-40.5 -23.5 -64 -65t-23.5 -93.5q0 -60 32 -106l254 253q-46 35 -108 35q-50 0 -90.5 -23.5zM444 343l-253 -253q46 -35 107 -35q50 0 91 23.5t64.5 64.5t23.5 93q0 60 -33 107z" />
    <glyph glyph-name="ugrave" unicode="&#xf9;" horiz-adv-x="592" 
d="M246 694l108 -151h-66l-126 151h84zM481.5 84.5q-28.5 -46.5 -77 -70t-107.5 -23.5q-60 0 -108.5 23.5t-77 70t-28.5 112.5v276h67v-270q0 -71 40 -109.5t107 -38.5q66 0 106 38.5t40 109.5v270h67v-276q0 -66 -28.5 -112.5z" />
    <glyph glyph-name="uacute" unicode="&#xfa;" horiz-adv-x="592" 
d="M342 694h84l-127 -151h-65zM481.5 84.5q-28.5 -46.5 -77 -70t-107.5 -23.5q-60 0 -108.5 23.5t-77 70t-28.5 112.5v276h67v-270q0 -71 40 -109.5t107 -38.5q66 0 106 38.5t40 109.5v270h67v-276q0 -66 -28.5 -112.5z" />
    <glyph glyph-name="ucircumflex" unicode="&#xfb;" horiz-adv-x="592" 
d="M297 644l-95 -99h-71l122 143h87l121 -143h-70zM481.5 84.5q-28.5 -46.5 -77 -70t-107.5 -23.5q-60 0 -108.5 23.5t-77 70t-28.5 112.5v276h67v-270q0 -71 40 -109.5t107 -38.5q66 0 106 38.5t40 109.5v270h67v-276q0 -66 -28.5 -112.5z" />
    <glyph glyph-name="udieresis" unicode="&#xfc;" horiz-adv-x="592" 
d="M226.5 649.5q13.5 -13.5 13.5 -33.5q0 -19 -13.5 -33t-33.5 -14t-33 13.5t-13 33.5t13 33.5t33 13.5t33.5 -13.5zM432.5 649.5q13.5 -13.5 13.5 -33.5t-13.5 -33.5t-33.5 -13.5q-19 0 -33 14t-14 33q0 20 14 33.5t33 13.5q20 0 33.5 -13.5zM481.5 84.5
q-28.5 -46.5 -77 -70t-107.5 -23.5q-60 0 -108.5 23.5t-77 70t-28.5 112.5v276h67v-270q0 -71 40 -109.5t107 -38.5q66 0 106 38.5t40 109.5v270h67v-276q0 -66 -28.5 -112.5z" />
    <glyph glyph-name="yacute" unicode="&#xfd;" horiz-adv-x="521" 
d="M309 694h84l-127 -151h-65zM52 -202l179 307l-220 368h76l182 -301l170 301h75l-388 -675h-74z" />
    <glyph glyph-name="thorn" unicode="&#xfe;" horiz-adv-x="622" 
d="M454 449q54 -32 85 -88t31 -125t-31 -125t-85 -88t-119 -32q-60 0 -105.5 24.5t-74.5 68.5v-284h-67v920h67v-331q29 43 75 67.5t105 24.5q65 0 119 -32zM236 394.5q-40 -23.5 -62.5 -65.5t-22.5 -93t22.5 -92.5t62.5 -65t90 -23.5t90 24t62.5 65.5t22.5 91.5
q0 51 -22.5 92.5t-62.5 65.5t-90 24t-90 -23.5z" />
    <glyph glyph-name="ydieresis" unicode="&#xff;" horiz-adv-x="521" 
d="M193.5 649.5q13.5 -13.5 13.5 -33.5q0 -19 -13.5 -33t-33.5 -14t-33 13.5t-13 33.5t13 33.5t33 13.5t33.5 -13.5zM399.5 649.5q13.5 -13.5 13.5 -33.5t-13.5 -33.5t-33.5 -13.5q-19 0 -33 14t-14 33q0 20 14 33.5t33 13.5q20 0 33.5 -13.5zM52 -202l179 307l-220 368h76
l182 -301l170 301h75l-388 -675h-74z" />
    <glyph glyph-name="Amacron" unicode="&#x100;" horiz-adv-x="708" 
d="M503 850v-54h-297v54h297zM612 0l-81 199h-355l-82 -199h-75l291 700h88l291 -700h-77zM502 267l-149 363l-150 -363h299z" />
    <glyph glyph-name="amacron" unicode="&#x101;" horiz-adv-x="621" 
d="M453 643v-55h-298v55h298zM467 0v86q-29 -44 -75 -69.5t-105 -25.5q-65 0 -119 32t-85 88t-31 125t31 125t85 88t119 32q60 0 105.5 -25t74.5 -69v86h67v-473h-67zM205 394q-40 -24 -62 -65.5t-22 -92.5q0 -50 22.5 -91.5t62 -65.5t89.5 -24q51 0 90.5 23.5t62 65
t22.5 92.5q0 52 -22.5 93.5t-62 65t-90.5 23.5q-50 0 -90 -24z" />
    <glyph glyph-name="Abreve" unicode="&#x102;" horiz-adv-x="708" 
d="M354 807q86 0 113 98l54 -16q-18 -67 -61.5 -103t-105.5 -36t-105 36t-62 103l54 16q28 -98 113 -98zM612 0l-81 199h-355l-82 -199h-75l291 700h88l291 -700h-77zM502 267l-149 363l-150 -363h299z" />
    <glyph glyph-name="abreve" unicode="&#x103;" horiz-adv-x="621" 
d="M233 624.5q29 -24.5 71 -24.5q85 0 113 97l54 -16q-19 -67 -62 -102.5t-105 -35.5t-105.5 35.5t-60.5 102.5l53 16q13 -48 42 -72.5zM467 0v86q-29 -44 -75 -69.5t-105 -25.5q-65 0 -119 32t-85 88t-31 125t31 125t85 88t119 32q60 0 105.5 -25t74.5 -69v86h67v-473h-67z
M205 394q-40 -24 -62 -65.5t-22 -92.5q0 -50 22.5 -91.5t62 -65.5t89.5 -24q51 0 90.5 23.5t62 65t22.5 92.5q0 52 -22.5 93.5t-62 65t-90.5 23.5q-50 0 -90 -24z" />
    <glyph glyph-name="Aogonek" unicode="&#x104;" horiz-adv-x="708" 
d="M596 -207q-46 0 -75 23.5t-29 62.5q0 38 29 68t88 59l-78 193h-355l-82 -199h-75l291 701h88l291 -701h-21q-58 -27 -85.5 -53t-27.5 -54q0 -20 13 -31.5t35 -11.5q29 0 54 28l36 -43q-42 -42 -97 -42zM502 267l-149 363l-150 -363h299z" />
    <glyph glyph-name="aogonek" unicode="&#x105;" horiz-adv-x="621" 
d="M459 -207q-46 0 -74.5 23.5t-28.5 62.5q0 38 27.5 67.5t83.5 56.5v83q-29 -44 -75 -69.5t-105 -25.5q-65 0 -119 32t-85 88t-31 125t31 125t85 88t119 32q60 0 105.5 -25t74.5 -69v86h67v-473q-60 -27 -88 -52.5t-28 -54.5q0 -20 13 -31.5t35 -11.5q31 0 54 28l36 -43
q-40 -42 -97 -42zM205 394q-40 -24 -62 -65.5t-22 -92.5q0 -50 22.5 -91.5t62 -65.5t89.5 -24q51 0 90.5 23.5t62 65t22.5 92.5q0 52 -22.5 93.5t-62 65t-90.5 23.5q-50 0 -90 -24z" />
    <glyph glyph-name="Cacute" unicode="&#x106;" horiz-adv-x="763" 
d="M458 902h84l-127 -152h-66zM588 670q76 -39 118 -107l-61 -40q-36 54 -94.5 85t-129.5 31q-80 0 -145 -36.5t-102.5 -102t-37.5 -150.5t37.5 -150.5t102.5 -102t145 -36.5q70 0 129.5 31t94.5 85l59 -43q-45 -67 -119.5 -105t-163.5 -38q-102 0 -184.5 46t-129 128
t-46.5 185t46.5 185t129 128t184.5 46q91 0 167 -39z" />
    <glyph glyph-name="cacute" unicode="&#x107;" horiz-adv-x="513" 
d="M337 694h84l-126 -151h-67zM394 461.5q46 -19.5 77 -56.5l-45 -44q-55 57 -133 57q-48 0 -87.5 -23.5t-62 -65t-22.5 -93.5t22.5 -93t62 -64.5t87.5 -23.5q77 0 135 58l43 -45q-32 -37 -77.5 -57t-98.5 -20q-71 0 -126 32t-86 88t-31 125t31 125t86 88t126 32
q53 0 99 -19.5z" />
    <glyph glyph-name="Ccircumflex" unicode="&#x108;" horiz-adv-x="763" 
d="M418 851l-95 -99h-70l122 144h87l121 -144h-71zM588 670q76 -39 118 -107l-61 -40q-36 54 -94.5 85t-129.5 31q-80 0 -145 -36.5t-102.5 -102t-37.5 -150.5t37.5 -150.5t102.5 -102t145 -36.5q70 0 129.5 31t94.5 85l59 -43q-45 -67 -119.5 -105t-163.5 -38
q-102 0 -184.5 46t-129 128t-46.5 185t46.5 185t129 128t184.5 46q91 0 167 -39z" />
    <glyph glyph-name="ccircumflex" unicode="&#x109;" horiz-adv-x="513" 
d="M291 644l-94 -99h-71l122 143h87l122 -143h-71zM394 461.5q46 -19.5 77 -56.5l-45 -44q-55 57 -133 57q-48 0 -87.5 -23.5t-62 -65t-22.5 -93.5t22.5 -93t62 -64.5t87.5 -23.5q77 0 135 58l43 -45q-32 -37 -77.5 -57t-98.5 -20q-71 0 -126 32t-86 88t-31 125t31 125
t86 88t126 32q53 0 99 -19.5z" />
    <glyph glyph-name="Cdotaccent" unicode="&#x10a;" horiz-adv-x="763" 
d="M446 859.5q14 -14.5 14 -34.5q0 -21 -14 -35t-34 -14q-21 0 -35 14t-14 35q0 20 14 34.5t35 14.5q20 0 34 -14.5zM588 670q76 -39 118 -107l-61 -40q-36 54 -94.5 85t-129.5 31q-80 0 -145 -36.5t-102.5 -102t-37.5 -150.5t37.5 -150.5t102.5 -102t145 -36.5
q70 0 129.5 31t94.5 85l59 -43q-45 -67 -119.5 -105t-163.5 -38q-102 0 -184.5 46t-129 128t-46.5 185t46.5 185t129 128t184.5 46q91 0 167 -39z" />
    <glyph glyph-name="cdotaccent" unicode="&#x10b;" horiz-adv-x="513" 
d="M324.5 674q13.5 -14 13.5 -34q0 -19 -13.5 -33t-33.5 -14q-19 0 -32.5 13.5t-13.5 33.5t13.5 34t32.5 14q20 0 33.5 -14zM394 461.5q46 -19.5 77 -56.5l-45 -44q-55 57 -133 57q-48 0 -87.5 -23.5t-62 -65t-22.5 -93.5t22.5 -93t62 -64.5t87.5 -23.5q77 0 135 58l43 -45
q-32 -37 -77.5 -57t-98.5 -20q-71 0 -126 32t-86 88t-31 125t31 125t86 88t126 32q53 0 99 -19.5z" />
    <glyph glyph-name="Ccaron" unicode="&#x10c;" horiz-adv-x="763" 
d="M418 796l94 98h71l-121 -143h-87l-122 143h70zM588 670q76 -39 118 -107l-61 -40q-36 54 -94.5 85t-129.5 31q-80 0 -145 -36.5t-102.5 -102t-37.5 -150.5t37.5 -150.5t102.5 -102t145 -36.5q70 0 129.5 31t94.5 85l59 -43q-45 -67 -119.5 -105t-163.5 -38
q-102 0 -184.5 46t-129 128t-46.5 185t46.5 185t129 128t184.5 46q91 0 167 -39z" />
    <glyph glyph-name="ccaron" unicode="&#x10d;" horiz-adv-x="513" 
d="M291 589l95 98h71l-122 -143h-87l-122 143h71zM394 461.5q46 -19.5 77 -56.5l-45 -44q-55 57 -133 57q-48 0 -87.5 -23.5t-62 -65t-22.5 -93.5t22.5 -93t62 -64.5t87.5 -23.5q77 0 135 58l43 -45q-32 -37 -77.5 -57t-98.5 -20q-71 0 -126 32t-86 88t-31 125t31 125t86 88
t126 32q53 0 99 -19.5z" />
    <glyph glyph-name="Dcaron" unicode="&#x10e;" horiz-adv-x="798" 
d="M367 796l95 98h71l-122 -143h-87l-122 143h71zM560.5 657q85.5 -43 131.5 -122t46 -185t-46 -185t-131.5 -122t-199.5 -43h-260v700h260q114 0 199.5 -43zM174 68h187q144 0 222.5 76t78.5 206q0 131 -78 206.5t-223 75.5h-187v-564z" />
    <glyph glyph-name="dcaron" unicode="&#x10f;" horiz-adv-x="645" 
d="M391.5 456.5q45.5 -24.5 75.5 -68.5v332h67v-720h-67v86q-29 -44 -75 -69.5t-105 -25.5q-65 0 -119 32t-85 88t-31 125t31 125t85 88t119 32q59 0 104.5 -24.5zM598 720h68l-17 -197h-56zM205 394q-40 -24 -62 -65.5t-22 -92.5q0 -50 22.5 -91.5t62 -65.5t89.5 -24
q51 0 90.5 23.5t62 65t22.5 92.5q0 52 -22.5 93.5t-62 65t-90.5 23.5q-50 0 -90 -24z" />
    <glyph glyph-name="Dcroat" unicode="&#x110;" horiz-adv-x="880" 
d="M642 657q85 -43 131 -122t46 -185t-46 -185t-131 -122t-199 -43h-260v319h-122v68h122v313h260q114 0 199 -43zM255 319v-251h188q96 0 163.5 34.5t102.5 98.5t35 149q0 130 -78.5 206t-222.5 76h-188v-245h205v-68h-205z" />
    <glyph glyph-name="dcroat" unicode="&#x111;" horiz-adv-x="620" 
d="M534 560v-560h-67v86q-29 -44 -75 -69.5t-105 -25.5q-65 0 -119 32t-85 88t-31 125t31 125t85 88t119 32q59 0 104.5 -24.5t75.5 -68.5v172h-212v60h212v100h67v-100h78v-60h-78zM205 394q-40 -24 -62 -65.5t-22 -92.5q0 -50 22.5 -91.5t62 -65.5t89.5 -24
q51 0 90.5 23.5t62 65t22.5 92.5q0 52 -22.5 93.5t-62 65t-90.5 23.5q-50 0 -90 -24z" />
    <glyph glyph-name="Emacron" unicode="&#x112;" horiz-adv-x="670" 
d="M489 850v-54h-297v54h297zM101 0v700h484v-67h-411v-247h398v-67h-398v-251h415v-68h-488z" />
    <glyph glyph-name="emacron" unicode="&#x113;" horiz-adv-x="560" 
d="M434 643v-55h-297v55h297zM400.5 450q50.5 -31 79.5 -86t29 -125q0 -19 -1 -26h-387q7 -77 55 -120t119 -43q86 0 153 64l37 -45q-77 -78 -195 -78q-69 0 -123 31t-84.5 87t-30.5 127q0 70 30.5 126t84 87.5t120.5 31.5q63 0 113.5 -31zM174 379q-44 -43 -52 -112h318
q-6 69 -49 112t-105 43q-68 0 -112 -43z" />
    <glyph glyph-name="Ebreve" unicode="&#x114;" horiz-adv-x="670" 
d="M341 807q85 0 112 98l55 -16q-19 -67 -62 -103t-105 -36t-105.5 36t-61.5 103l53 16q28 -98 114 -98zM101 0v700h484v-67h-411v-247h398v-67h-398v-251h415v-68h-488z" />
    <glyph glyph-name="ebreve" unicode="&#x115;" horiz-adv-x="560" 
d="M285 600q86 0 113 97l55 -16q-19 -67 -62 -102.5t-106 -35.5q-62 0 -105 35.5t-62 102.5l54 16q28 -97 113 -97zM400.5 450q50.5 -31 79.5 -86t29 -125q0 -19 -1 -26h-387q7 -77 55 -120t119 -43q86 0 153 64l37 -45q-77 -78 -195 -78q-69 0 -123 31t-84.5 87t-30.5 127
q0 70 30.5 126t84 87.5t120.5 31.5q63 0 113.5 -31zM174 379q-44 -43 -52 -112h318q-6 69 -49 112t-105 43q-68 0 -112 -43z" />
    <glyph glyph-name="Edotaccent" unicode="&#x116;" horiz-adv-x="670" 
d="M369 859.5q14 -14.5 14 -34.5q0 -21 -14 -35t-34 -14q-21 0 -35 14t-14 35q0 20 14 34.5t35 14.5q20 0 34 -14.5zM101 0v700h484v-67h-411v-247h398v-67h-398v-251h415v-68h-488z" />
    <glyph glyph-name="edotaccent" unicode="&#x117;" horiz-adv-x="560" 
d="M318.5 674q13.5 -14 13.5 -34t-13.5 -33.5t-33.5 -13.5q-19 0 -33 14t-14 33q0 20 13.5 34t33.5 14t33.5 -14zM400.5 450q50.5 -31 79.5 -86t29 -125q0 -19 -1 -26h-387q7 -77 55 -120t119 -43q86 0 153 64l37 -45q-77 -78 -195 -78q-69 0 -123 31t-84.5 87t-30.5 127
q0 70 30.5 126t84 87.5t120.5 31.5q63 0 113.5 -31zM174 379q-44 -43 -52 -112h318q-6 69 -49 112t-105 43q-68 0 -112 -43z" />
    <glyph glyph-name="Eogonek" unicode="&#x118;" horiz-adv-x="670" 
d="M498 0q-39 -22 -58 -44.5t-19 -49.5q0 -25 18 -40.5t48 -15.5q41 0 74 30l35 -41q-22 -22 -51.5 -34t-62.5 -12q-56 0 -90.5 28t-34.5 72q0 34 18.5 59.5t55.5 47.5h-330v700h484v-67h-411v-247h398v-67h-398v-251h415v-68h-91z" />
    <glyph glyph-name="eogonek" unicode="&#x119;" horiz-adv-x="560" 
d="M366 -207q-56 0 -91 28t-35 72q0 58 60 99q-69 -4 -126 26.5t-89.5 88t-32.5 129.5q0 70 30.5 126t84 87.5t120.5 31.5q63 0 113.5 -31t79.5 -86t29 -125q0 -19 -1 -26h-387q7 -77 55 -120t119 -43q86 0 153 64l37 -45q-35 -36 -83 -57q-96 -44 -96 -106
q0 -25 17.5 -40.5t47.5 -15.5q41 0 74 30l36 -41q-48 -46 -115 -46zM174 379q-44 -43 -52 -112h318q-6 69 -49 112t-105 43q-68 0 -112 -43z" />
    <glyph glyph-name="Ecaron" unicode="&#x11a;" horiz-adv-x="670" 
d="M341 796l94 98h70l-121 -143h-87l-122 143h71zM101 0v700h484v-67h-411v-247h398v-67h-398v-251h415v-68h-488z" />
    <glyph glyph-name="ecaron" unicode="&#x11b;" horiz-adv-x="560" 
d="M285 589l95 98h70l-122 -143h-86l-122 143h71zM400.5 450q50.5 -31 79.5 -86t29 -125q0 -19 -1 -26h-387q7 -77 55 -120t119 -43q86 0 153 64l37 -45q-77 -78 -195 -78q-69 0 -123 31t-84.5 87t-30.5 127q0 70 30.5 126t84 87.5t120.5 31.5q63 0 113.5 -31zM174 379
q-44 -43 -52 -112h318q-6 69 -49 112t-105 43q-68 0 -112 -43z" />
    <glyph glyph-name="Gcircumflex" unicode="&#x11c;" horiz-adv-x="816" 
d="M411 851l-95 -99h-71l122 144h87l121 -144h-70zM572.5 678q70.5 -31 118.5 -87l-53 -51q-40 47 -95.5 73t-121.5 26q-80 0 -145 -36.5t-102.5 -102t-37.5 -150.5t37.5 -150.5t102 -102t142.5 -36.5q114 0 182.5 65.5t76.5 179.5h-228v66h306q1 -7 1 -20q0 -103 -42 -185
t-118.5 -129t-177.5 -47q-95 0 -177 44t-131 125.5t-49 189.5q0 104 47 185.5t129 127.5t184 46q81 0 151.5 -31z" />
    <glyph glyph-name="gcircumflex" unicode="&#x11d;" horiz-adv-x="617" 
d="M299 644l-94 -99h-70l122 143h86l122 -143h-71zM388.5 456q45.5 -25 74.5 -70v87h67v-440q0 -76 -32.5 -130.5t-88.5 -82t-128 -27.5q-59 0 -112 18t-88 49l31 50q73 -55 168 -55q80 0 131 45t51 131v62q-28 -45 -73.5 -70t-105.5 -25q-65 0 -117.5 31t-83 86t-30.5 125
t30.5 125t83 85.5t117.5 30.5q60 0 105.5 -25zM204 394.5q-39 -23.5 -61 -64.5t-22 -90q0 -50 22 -91t61 -64.5t89 -23.5t89.5 23.5t62 64.5t22.5 91t-22.5 90.5t-62 64t-89.5 23.5t-89 -23.5z" />
    <glyph glyph-name="Gbreve" unicode="&#x11e;" horiz-adv-x="816" 
d="M411 807q85 0 112 98l55 -16q-19 -67 -62 -103t-105 -36t-105.5 36t-61.5 103l53 16q28 -98 114 -98zM572.5 678q70.5 -31 118.5 -87l-53 -51q-40 47 -95.5 73t-121.5 26q-80 0 -145 -36.5t-102.5 -102t-37.5 -150.5t37.5 -150.5t102 -102t142.5 -36.5q114 0 182.5 65.5
t76.5 179.5h-228v66h306q1 -7 1 -20q0 -103 -42 -185t-118.5 -129t-177.5 -47q-95 0 -177 44t-131 125.5t-49 189.5q0 104 47 185.5t129 127.5t184 46q81 0 151.5 -31z" />
    <glyph glyph-name="gbreve" unicode="&#x11f;" horiz-adv-x="617" 
d="M299 600q86 0 114 97l54 -16q-19 -67 -62 -102.5t-106 -35.5q-62 0 -105 35.5t-61 102.5l54 16q27 -97 112 -97zM388.5 456q45.5 -25 74.5 -70v87h67v-440q0 -76 -32.5 -130.5t-88.5 -82t-128 -27.5q-59 0 -112 18t-88 49l31 50q73 -55 168 -55q80 0 131 45t51 131v62
q-28 -45 -73.5 -70t-105.5 -25q-65 0 -117.5 31t-83 86t-30.5 125t30.5 125t83 85.5t117.5 30.5q60 0 105.5 -25zM204 394.5q-39 -23.5 -61 -64.5t-22 -90q0 -50 22 -91t61 -64.5t89 -23.5t89.5 23.5t62 64.5t22.5 91t-22.5 90.5t-62 64t-89.5 23.5t-89 -23.5z" />
    <glyph glyph-name="Gdotaccent" unicode="&#x120;" horiz-adv-x="816" 
d="M439 859.5q14 -14.5 14 -34.5q0 -21 -14 -35t-34 -14q-21 0 -35 14t-14 35q0 20 14 34.5t35 14.5q20 0 34 -14.5zM572.5 678q70.5 -31 118.5 -87l-53 -51q-40 47 -95.5 73t-121.5 26q-80 0 -145 -36.5t-102.5 -102t-37.5 -150.5t37.5 -150.5t102 -102t142.5 -36.5
q114 0 182.5 65.5t76.5 179.5h-228v66h306q1 -7 1 -20q0 -103 -42 -185t-118.5 -129t-177.5 -47q-95 0 -177 44t-131 125.5t-49 189.5q0 104 47 185.5t129 127.5t184 46q81 0 151.5 -31z" />
    <glyph glyph-name="gdotaccent" unicode="&#x121;" horiz-adv-x="617" 
d="M332.5 674q13.5 -14 13.5 -34t-13.5 -33.5t-33.5 -13.5q-19 0 -32.5 13.5t-13.5 33.5t13.5 34t32.5 14q20 0 33.5 -14zM388.5 456q45.5 -25 74.5 -70v87h67v-440q0 -76 -32.5 -130.5t-88.5 -82t-128 -27.5q-59 0 -112 18t-88 49l31 50q73 -55 168 -55q80 0 131 45t51 131
v62q-28 -45 -73.5 -70t-105.5 -25q-65 0 -117.5 31t-83 86t-30.5 125t30.5 125t83 85.5t117.5 30.5q60 0 105.5 -25zM204 394.5q-39 -23.5 -61 -64.5t-22 -90q0 -50 22 -91t61 -64.5t89 -23.5t89.5 23.5t62 64.5t22.5 91t-22.5 90.5t-62 64t-89.5 23.5t-89 -23.5z" />
    <glyph glyph-name="Gcommaaccent" unicode="&#x122;" horiz-adv-x="816" 
d="M572.5 678q70.5 -31 118.5 -87l-53 -51q-40 47 -95.5 73t-121.5 26q-80 0 -145 -36.5t-102.5 -102t-37.5 -150.5t37.5 -150.5t102 -102t142.5 -36.5q114 0 182.5 65.5t76.5 179.5h-228v66h306q1 -7 1 -20q0 -103 -42 -185t-118.5 -129t-177.5 -47q-95 0 -177 44
t-131 125.5t-49 189.5q0 104 47 185.5t129 127.5t184 46q81 0 151.5 -31zM420 -218h-59l22 174h72z" />
    <glyph glyph-name="gcommaaccent" unicode="&#x123;" horiz-adv-x="617" 
d="M295 716h59l-22 -173h-73zM388.5 456q45.5 -25 74.5 -70v87h67v-440q0 -76 -32.5 -130.5t-88.5 -82t-128 -27.5q-59 0 -112 18t-88 49l31 50q73 -55 168 -55q80 0 131 45t51 131v62q-28 -45 -73.5 -70t-105.5 -25q-65 0 -117.5 31t-83 86t-30.5 125t30.5 125t83 85.5
t117.5 30.5q60 0 105.5 -25zM204 394.5q-39 -23.5 -61 -64.5t-22 -90q0 -50 22 -91t61 -64.5t89 -23.5t89.5 23.5t62 64.5t22.5 91t-22.5 90.5t-62 64t-89.5 23.5t-89 -23.5z" />
    <glyph glyph-name="Hcircumflex" unicode="&#x124;" horiz-adv-x="782" 
d="M391 851l-95 -99h-70l122 144h86l122 -144h-71zM608 387v313h73v-700h-73v319h-434v-319h-73v700h73v-313h434z" />
    <glyph glyph-name="hcircumflex" unicode="&#x125;" horiz-adv-x="598" 
d="M303 871l-95 -98h-71l122 143h87l122 -143h-71zM225.5 459.5q43.5 21.5 93.5 21.5q88 0 142.5 -51.5t54.5 -137.5v-292h-68v270q0 69 -37.5 108t-105.5 39q-64 0 -107 -41.5t-43 -107.5v-268h-67v720h67v-325q27 43 70.5 64.5z" />
    <glyph glyph-name="Hbar" unicode="&#x126;" horiz-adv-x="811" 
d="M695 509v-509h-72v319h-435v-319h-72v509h-85v60h85v131h72v-131h435v131h72v-131h85v-60h-85zM623 509h-435v-122h435v122z" />
    <glyph glyph-name="hbar" unicode="&#x127;" horiz-adv-x="598" 
d="M155 560v-165q27 43 70.5 64.5t93.5 21.5q88 0 142.5 -51.5t54.5 -137.5v-292h-68v270q0 69 -37.5 108t-105.5 39q-64 0 -107 -41.5t-43 -107.5v-268h-67v560h-89v60h89v100h67v-100h202v-60h-202z" />
    <glyph glyph-name="Itilde" unicode="&#x128;" horiz-adv-x="275" 
d="M10.5 862.5q25.5 13.5 59.5 13.5q25 0 42.5 -6t38.5 -18q16 -9 27.5 -13.5t25.5 -4.5q19 0 35 9t33 29l39 -39q-22 -29 -47.5 -42.5t-59.5 -13.5q-24 0 -42 6t-38 18q-18 9 -29 13.5t-25 4.5q-19 0 -34.5 -9t-33.5 -29l-39 38q22 30 47.5 43.5zM101 0v700h73v-700h-73z
" />
    <glyph glyph-name="itilde" unicode="&#x129;" horiz-adv-x="243" 
d="M-0.5 655.5q25.5 13.5 59.5 13.5q25 0 42.5 -6t38.5 -18q15 -9 27 -13.5t26 -4.5q19 0 35 9t33 29l39 -38q-22 -30 -47.5 -44t-59.5 -14q-24 0 -40.5 6t-39.5 18q-16 10 -28 14.5t-26 4.5q-19 0 -34.5 -9t-33.5 -29l-39 39q22 29 47.5 42.5zM88 0v473h67v-473h-67z" />
    <glyph glyph-name="Imacron" unicode="&#x12a;" horiz-adv-x="275" 
d="M287 850v-54h-299v54h299zM101 0v700h73v-700h-73z" />
    <glyph glyph-name="imacron" unicode="&#x12b;" horiz-adv-x="243" 
d="M271 643v-55h-299v55h299zM88 0v473h67v-473h-67z" />
    <glyph glyph-name="Ibreve" unicode="&#x12c;" horiz-adv-x="275" 
d="M66.5 831.5q28.5 -24.5 70.5 -24.5t71 24.5t43 73.5l53 -16q-18 -67 -61.5 -103t-105.5 -36t-105.5 36t-61.5 103l55 16q13 -49 41.5 -73.5zM101 0v700h73v-700h-73z" />
    <glyph glyph-name="ibreve" unicode="&#x12d;" horiz-adv-x="243" 
d="M51 624.5q29 -24.5 71 -24.5t71 24.5t42 72.5l54 -16q-18 -67 -61.5 -102.5t-105.5 -35.5t-106 35.5t-61 102.5l54 16q13 -48 42 -72.5zM88 0v473h67v-473h-67z" />
    <glyph glyph-name="Iogonek" unicode="&#x12e;" horiz-adv-x="275" 
d="M141 -207q-46 0 -75 23.5t-29 62.5q0 33 20.5 62t59.5 59h-16v700h73v-700q-74 -59 -74 -107q0 -20 12.5 -31.5t34.5 -11.5q30 0 55 28l35 -43q-40 -42 -96 -42z" />
    <glyph glyph-name="iogonek" unicode="&#x12f;" horiz-adv-x="243" 
d="M155.5 674q13.5 -14 13.5 -34q0 -19 -13.5 -33t-33.5 -14t-33.5 13.5t-13.5 33.5t13.5 34t33.5 14t33.5 -14zM82 -107q0 -20 13 -31.5t34 -11.5q30 0 55 28l35 -43q-41 -42 -96 -42q-46 0 -75 23.5t-29 62.5q0 33 21 62t60 59h-12v473h67v-473q-73 -59 -73 -107z" />
    <glyph glyph-name="Idotaccent" unicode="&#x130;" horiz-adv-x="275" 
d="M166 859.5q14 -14.5 14 -34.5q0 -21 -14 -35t-35 -14q-20 0 -34 14t-14 35q0 20 14 34.5t34 14.5q21 0 35 -14.5zM101 0v700h73v-700h-73z" />
    <glyph glyph-name="IJ" unicode="&#x132;" horiz-adv-x="848" 
d="M101 0v700h73v-700h-73zM721.5 111q-31.5 -59 -87 -89.5t-125.5 -30.5q-129 0 -213 95l47 50q28 -33 69.5 -54t95.5 -21q79 0 126 51t47 147v441h72v-448q0 -82 -31.5 -141z" />
    <glyph glyph-name="ij" unicode="&#x133;" horiz-adv-x="487" 
d="M155.5 674q13.5 -14 13.5 -34q0 -19 -13.5 -33t-33.5 -14t-33.5 13.5t-13.5 33.5t13.5 34t33.5 14t33.5 -14zM398.5 674q13.5 -14 13.5 -34t-13.5 -33.5t-33.5 -13.5q-19 0 -32.5 13.5t-13.5 33.5t13.5 34t32.5 14q20 0 33.5 -14zM88 0v473h67v-473h-67zM370 -174.5
q-30 -32.5 -82 -32.5q-17 0 -35.5 4.5t-30.5 11.5l15 58q22 -11 45 -11q50 0 50 64v553h68v-556q0 -59 -30 -91.5z" />
    <glyph glyph-name="Jcircumflex" unicode="&#x134;" horiz-adv-x="574" 
d="M442 851l-94 -99h-71l121 144h87l122 -144h-70zM446.5 111q-31.5 -59 -86.5 -89.5t-125 -30.5q-131 0 -213 95l47 50q28 -33 69.5 -54t94.5 -21q79 0 126 51t47 147v441h72v-448q0 -82 -31.5 -141z" />
    <glyph glyph-name="jcircumflex" unicode="&#x135;" horiz-adv-x="244" 
d="M123 644l-94 -99h-72l122 143h87l122 -143h-70zM127.5 -174.5q-29.5 -32.5 -81.5 -32.5q-18 0 -36.5 4.5t-30.5 11.5l14 58q24 -11 46 -11q51 0 51 64v553h67v-556q0 -59 -29.5 -91.5z" />
    <glyph glyph-name="Kcommaaccent" unicode="&#x136;" horiz-adv-x="688" 
d="M174 318v-318h-73v700h73v-314h89l297 314h93l-332 -344l353 -356h-97l-315 318h-88zM355 -218h-59l22 174h73z" />
    <glyph glyph-name="kcommaaccent" unicode="&#x137;" horiz-adv-x="525" 
d="M228 278l189 195h85l-220 -223l223 -250h-85l-192 217h-73v-217h-67v720h67v-442h73zM286 -218h-59l22 174h73z" />
    <glyph glyph-name="kgreenlandic" unicode="&#x138;" horiz-adv-x="519" 
d="M225 278l187 195h83l-215 -223l219 -250h-85l-189 217h-70v-217h-67v473h67v-195h70z" />
    <glyph glyph-name="Lacute" unicode="&#x139;" horiz-adv-x="602" 
d="M177 902h84l-127 -152h-66zM101 0v700h73v-632h408v-68h-481z" />
    <glyph glyph-name="lacute" unicode="&#x13a;" horiz-adv-x="243" 
d="M146 924h84l-126 -152h-66zM88 0v720h67v-720h-67z" />
    <glyph glyph-name="Lcommaaccent" unicode="&#x13b;" horiz-adv-x="602" 
d="M101 0v700h73v-632h408v-68h-481zM348 -218h-59l22 174h73z" />
    <glyph glyph-name="lcommaaccent" unicode="&#x13c;" horiz-adv-x="243" 
d="M88 0v720h67v-720h-67zM130 -218h-59l22 174h73z" />
    <glyph glyph-name="Lcaron" unicode="&#x13d;" horiz-adv-x="602" 
d="M101 0v700h73v-632h408v-68h-481zM303 700h68l-17 -197h-56z" />
    <glyph glyph-name="lcaron" unicode="&#x13e;" horiz-adv-x="264" 
d="M88 0v720h67v-720h-67zM215 720h69l-18 -197h-56z" />
    <glyph glyph-name="Ldot" unicode="&#x13f;" horiz-adv-x="602" 
d="M101 0v700h73v-632h408v-68h-481zM459 387.5q14 -14.5 14 -34.5t-14 -34t-35 -14q-20 0 -34 14t-14 34t14 34.5t34 14.5q21 0 35 -14.5z" />
    <glyph glyph-name="ldot" unicode="&#x140;" horiz-adv-x="296" 
d="M88 0v720h67v-720h-67zM301.5 399q13.5 -14 13.5 -34q0 -19 -13 -32.5t-33 -13.5t-33 13t-13 33t13 34t33 14q19 0 32.5 -14z" />
    <glyph glyph-name="Lslash" unicode="&#x141;" horiz-adv-x="672" 
d="M171 0v258l-110 -62v76l110 61v367h72v-326l262 148v-76l-262 -147v-231h408v-68h-480z" />
    <glyph glyph-name="lslash" unicode="&#x142;" horiz-adv-x="333" 
d="M306 510v-70l-106 -76v-364h-67v316l-106 -76v70l106 76v334h67v-287z" />
    <glyph glyph-name="Nacute" unicode="&#x143;" horiz-adv-x="785" 
d="M432 902h84l-127 -152h-65zM618 0l-444 577v-577h-73v700h66l444 -577v577h73v-700h-66z" />
    <glyph glyph-name="nacute" unicode="&#x144;" horiz-adv-x="598" 
d="M352 694h84l-126 -151h-67zM461.5 429.5q54.5 -51.5 54.5 -137.5v-292h-68v270q0 69 -37.5 108t-105.5 39q-64 0 -107 -41.5t-43 -107.5v-268h-67v473h67v-79q26 44 70 65.5t94 21.5q88 0 142.5 -51.5z" />
    <glyph glyph-name="Ncommaaccent" unicode="&#x145;" horiz-adv-x="785" 
d="M618 0l-444 577v-577h-73v700h66l444 -577v577h73v-700h-66zM402 -218h-59l22 174h73z" />
    <glyph glyph-name="ncommaaccent" unicode="&#x146;" horiz-adv-x="598" 
d="M461.5 429.5q54.5 -51.5 54.5 -137.5v-292h-68v270q0 69 -37.5 108t-105.5 39q-64 0 -107 -41.5t-43 -107.5v-268h-67v473h67v-79q26 44 70 65.5t94 21.5q88 0 142.5 -51.5zM310 -218h-60l22 174h73z" />
    <glyph glyph-name="Ncaron" unicode="&#x147;" horiz-adv-x="785" 
d="M392 796l95 98h71l-122 -143h-86l-122 143h70zM618 0l-444 577v-577h-73v700h66l444 -577v577h73v-700h-66z" />
    <glyph glyph-name="ncaron" unicode="&#x148;" horiz-adv-x="598" 
d="M306 589l95 98h71l-122 -143h-86l-122 143h70zM461.5 429.5q54.5 -51.5 54.5 -137.5v-292h-68v270q0 69 -37.5 108t-105.5 39q-64 0 -107 -41.5t-43 -107.5v-268h-67v473h67v-79q26 44 70 65.5t94 21.5q88 0 142.5 -51.5z" />
    <glyph glyph-name="napostrophe" unicode="&#x149;" horiz-adv-x="740" 
d="M125 471h-57l31 249h78zM602.5 429.5q54.5 -51.5 54.5 -137.5v-292h-68v270q0 69 -37.5 108t-105.5 39q-64 0 -106.5 -41.5t-42.5 -107.5v-268h-67v473h66v-79q27 44 70.5 65.5t93.5 21.5q88 0 142.5 -51.5z" />
    <glyph glyph-name="Eng" unicode="&#x14a;" horiz-adv-x="785" 
d="M642 -155.5q-42 -51.5 -127 -51.5q-74 0 -131 33l26 62q45 -26 97 -26q54 0 79 32.5t25 90.5v23l-437 569v-577h-73v700h66l444 -577v577h73v-719q0 -85 -42 -136.5z" />
    <glyph glyph-name="eng" unicode="&#x14b;" horiz-adv-x="598" 
d="M461.5 429.5q54.5 -51.5 54.5 -137.5v-334q0 -60 -29.5 -92t-82.5 -32q-38 0 -65 15l14 59q22 -11 44 -11q51 0 51 64v309q0 69 -37.5 108t-105.5 39q-64 0 -107 -41.5t-43 -107.5v-268h-67v473h67v-79q26 44 70 65.5t94 21.5q88 0 142.5 -51.5z" />
    <glyph glyph-name="Omacron" unicode="&#x14c;" horiz-adv-x="841" 
d="M570 850v-54h-298v54h298zM604.5 663q81.5 -46 128.5 -128t47 -185t-47 -185t-128.5 -128t-183.5 -46t-184.5 46t-129 128t-46.5 185t46.5 185t129 128t184.5 46t183.5 -46zM276 602.5q-65 -36.5 -102.5 -102t-37.5 -150.5q0 -84 37.5 -150t102.5 -102.5t145 -36.5
t144.5 36.5t102 102.5t37.5 150q0 85 -37.5 150.5t-102 102t-144.5 36.5t-145 -36.5z" />
    <glyph glyph-name="omacron" unicode="&#x14d;" horiz-adv-x="597" 
d="M448 643v-55h-298v55h298zM424.5 449q56.5 -32 89 -88t32.5 -125t-32.5 -125t-89.5 -88t-126 -32t-125.5 32t-88.5 88t-32 125t32 125t88.5 88t125.5 32q70 0 126.5 -32zM207.5 394.5q-40.5 -23.5 -63.5 -65t-23 -93.5t23 -93t63.5 -64.5t90.5 -23.5t91 23.5t64 64.5
t23 93t-23 93.5t-64 65t-91 23.5t-90.5 -23.5z" />
    <glyph glyph-name="Obreve" unicode="&#x14e;" horiz-adv-x="841" 
d="M350 831.5q29 -24.5 71 -24.5q85 0 112 98l55 -16q-19 -67 -62 -103t-105 -36t-105.5 36t-61.5 103l53 16q14 -49 43 -73.5zM604.5 663q81.5 -46 128.5 -128t47 -185t-47 -185t-128.5 -128t-183.5 -46t-184.5 46t-129 128t-46.5 185t46.5 185t129 128t184.5 46t183.5 -46
zM276 602.5q-65 -36.5 -102.5 -102t-37.5 -150.5q0 -84 37.5 -150t102.5 -102.5t145 -36.5t144.5 36.5t102 102.5t37.5 150q0 85 -37.5 150.5t-102 102t-144.5 36.5t-145 -36.5z" />
    <glyph glyph-name="obreve" unicode="&#x14f;" horiz-adv-x="597" 
d="M298 600q86 0 114 97l53 -16q-18 -67 -61 -102.5t-106 -35.5q-62 0 -105 35.5t-61 102.5l54 16q27 -97 112 -97zM424.5 449q56.5 -32 89 -88t32.5 -125t-32.5 -125t-89.5 -88t-126 -32t-125.5 32t-88.5 88t-32 125t32 125t88.5 88t125.5 32q70 0 126.5 -32zM207.5 394.5
q-40.5 -23.5 -63.5 -65t-23 -93.5t23 -93t63.5 -64.5t90.5 -23.5t91 23.5t64 64.5t23 93t-23 93.5t-64 65t-91 23.5t-90.5 -23.5z" />
    <glyph glyph-name="Ohungarumlaut" unicode="&#x150;" horiz-adv-x="841" 
d="M391 902h76l-113 -152h-68zM572 902h77l-122 -152h-67zM604.5 663q81.5 -46 128.5 -128t47 -185t-47 -185t-128.5 -128t-183.5 -46t-184.5 46t-129 128t-46.5 185t46.5 185t129 128t184.5 46t183.5 -46zM276 602.5q-65 -36.5 -102.5 -102t-37.5 -150.5q0 -84 37.5 -150
t102.5 -102.5t145 -36.5t144.5 36.5t102 102.5t37.5 150q0 85 -37.5 150.5t-102 102t-144.5 36.5t-145 -36.5z" />
    <glyph glyph-name="ohungarumlaut" unicode="&#x151;" horiz-adv-x="597" 
d="M275 694h76l-112 -151h-69zM456 694h77l-122 -151h-67zM424.5 449q56.5 -32 89 -88t32.5 -125t-32.5 -125t-89.5 -88t-126 -32t-125.5 32t-88.5 88t-32 125t32 125t88.5 88t125.5 32q70 0 126.5 -32zM207.5 394.5q-40.5 -23.5 -63.5 -65t-23 -93.5t23 -93t63.5 -64.5
t90.5 -23.5t91 23.5t64 64.5t23 93t-23 93.5t-64 65t-91 23.5t-90.5 -23.5z" />
    <glyph glyph-name="OE" unicode="&#x152;" horiz-adv-x="1127" 
d="M437 0q-114 0 -199 43t-131 122t-46 185q0 107 46 186t130.5 121.5t199.5 42.5h606v-67h-413v-247h400v-67h-400v-251h416v-68h-609zM214.5 144q78.5 -76 223.5 -76h120v564h-120q-145 0 -223.5 -76t-78.5 -206t78.5 -206z" />
    <glyph glyph-name="oe" unicode="&#x153;" horiz-adv-x="985" 
d="M824.5 450q50.5 -31 79.5 -86t30 -125q0 -12 -2 -26h-387q7 -77 55.5 -120t118.5 -43q87 0 154 64l37 -45q-42 -42 -90.5 -60t-104.5 -18q-70 0 -124.5 33t-82.5 91q-31 -57 -86.5 -90.5t-123.5 -33.5q-69 0 -125.5 32t-88.5 88t-32 125t32 125t88.5 88t125.5 32
t124.5 -33.5t85.5 -91.5q29 58 82.5 91.5t120.5 33.5q63 0 113.5 -31zM599 379q-45 -43 -53 -112h319q-7 69 -49.5 112t-105.5 43q-66 0 -111 -43zM207.5 394.5q-40.5 -23.5 -63.5 -65t-23 -93.5t23 -93t63.5 -64.5t90.5 -23.5t90.5 23.5t64 64.5t23.5 93t-23.5 93.5t-64 65
t-90.5 23.5t-90.5 -23.5z" />
    <glyph glyph-name="Racute" unicode="&#x154;" horiz-adv-x="672" 
d="M370 902h84l-126 -152h-67zM552.5 648.5q63.5 -51.5 63.5 -145.5q0 -90 -63.5 -142t-173.5 -54h-24l258 -307h-89l-253 306h-97v-306h-73v700h272q116 0 179.5 -51.5zM174 371h197q83 0 126.5 34t43.5 98q0 63 -44 96.5t-126 33.5h-197v-262z" />
    <glyph glyph-name="racute" unicode="&#x155;" horiz-adv-x="409" 
d="M279 694h84l-126 -151h-67zM383 465l-15 -67q-34 19 -83 19q-57 0 -93.5 -41.5t-36.5 -109.5v-266h-67v473h66v-76q24 40 61 62.5t83 22.5q48 0 85 -17z" />
    <glyph glyph-name="Rcommaaccent" unicode="&#x156;" horiz-adv-x="672" 
d="M552.5 648.5q63.5 -51.5 63.5 -145.5q0 -90 -63 -142t-173 -54h-25l258 -307h-89l-253 306h-97v-306h-73v700h272q116 0 179.5 -51.5zM174 371h197q83 0 126.5 34t43.5 98q0 63 -44 96.5t-126 33.5h-197v-262zM342 -218h-59l22 174h73z" />
    <glyph glyph-name="rcommaaccent" unicode="&#x157;" horiz-adv-x="409" 
d="M383 465l-15 -67q-34 19 -83 19q-57 0 -93.5 -41.5t-36.5 -109.5v-266h-67v473h66v-76q24 40 61 62.5t83 22.5q48 0 85 -17zM130 -218h-58l22 174h72z" />
    <glyph glyph-name="Rcaron" unicode="&#x158;" horiz-adv-x="672" 
d="M331 796l94 98h71l-122 -143h-87l-122 143h71zM552.5 648.5q63.5 -51.5 63.5 -145.5q0 -89 -63.5 -142t-172.5 -54h-25l258 -307h-89l-253 306h-97v-306h-73v700h272q116 0 179.5 -51.5zM174 371h197q83 0 126.5 34t43.5 98q0 63 -44 96.5t-126 33.5h-197v-262z" />
    <glyph glyph-name="rcaron" unicode="&#x159;" horiz-adv-x="409" 
d="M233 589l95 98h71l-122 -143h-87l-122 143h71zM383 465l-15 -67q-34 19 -83 19q-57 0 -93.5 -41.5t-36.5 -109.5v-266h-67v473h66v-76q24 40 61 62.5t83 22.5q48 0 85 -17z" />
    <glyph glyph-name="Sacute" unicode="&#x15a;" horiz-adv-x="673" 
d="M392 902h84l-126 -152h-66zM343 640q-82 0 -134 -35.5t-52 -96.5q0 -50 41 -79t126 -39l72 -9q216 -26 216 -181q0 -67 -37 -114t-100 -71t-140 -24t-150.5 25t-123.5 64l38 58q42 -32 105 -55t130 -23q89 0 145.5 34.5t56.5 98.5q0 53 -43 81.5t-130 38.5l-75 9
q-98 11 -152 56.5t-54 125.5q0 64 34.5 110t94.5 70.5t133 24.5q138 0 252 -77l-37 -59q-95 67 -216 67z" />
    <glyph glyph-name="sacute" unicode="&#x15b;" horiz-adv-x="490" 
d="M300 694h84l-127 -151h-66zM335.5 408.5q-43.5 13.5 -88.5 13.5q-53 0 -85 -21t-32 -58q0 -30 25.5 -47t77.5 -24l57 -7q76 -8 116 -40.5t40 -87.5q0 -68 -56 -107t-149 -39q-54 0 -105.5 15t-91.5 46l30 50q33 -24 73 -38t95 -14q63 0 99 21t36 61q0 61 -104 73l-58 7
q-78 9 -116 42t-38 86q0 66 50.5 103.5t135.5 37.5q54 0 102.5 -14t83.5 -38l-26 -52q-28 18 -71.5 31.5z" />
    <glyph glyph-name="Scircumflex" unicode="&#x15c;" horiz-adv-x="673" 
d="M353 851l-94 -99h-71l122 144h86l122 -144h-70zM343 640q-82 0 -134 -35.5t-52 -96.5q0 -50 41 -79t126 -39l72 -9q216 -26 216 -181q0 -67 -37 -114t-100 -71t-140 -24t-150.5 25t-123.5 64l38 58q42 -32 105 -55t130 -23q89 0 145.5 34.5t56.5 98.5q0 53 -43 81.5
t-130 38.5l-75 9q-98 11 -152 56.5t-54 125.5q0 64 34.5 110t94.5 70.5t133 24.5q138 0 252 -77l-37 -59q-95 67 -216 67z" />
    <glyph glyph-name="scircumflex" unicode="&#x15d;" horiz-adv-x="490" 
d="M254 644l-94 -99h-72l122 143h87l122 -143h-71zM335.5 408.5q-43.5 13.5 -88.5 13.5q-53 0 -85 -21t-32 -58q0 -30 25.5 -47t77.5 -24l57 -7q76 -8 116 -40.5t40 -87.5q0 -68 -56 -107t-149 -39q-54 0 -105.5 15t-91.5 46l30 50q33 -24 73 -38t95 -14q63 0 99 21t36 61
q0 61 -104 73l-58 7q-78 9 -116 42t-38 86q0 66 50.5 103.5t135.5 37.5q54 0 102.5 -14t83.5 -38l-26 -52q-28 18 -71.5 31.5z" />
    <glyph glyph-name="Scedilla" unicode="&#x15e;" horiz-adv-x="673" 
d="M343 640q-82 0 -134 -35.5t-52 -96.5q0 -50 41 -79t126 -39l72 -9q216 -26 216 -181q0 -89 -63.5 -142t-166.5 -64l-49 -156h-72l51 155q-71 3 -138.5 27t-112.5 60l38 58q42 -32 105 -55t130 -23q89 0 145.5 34.5t56.5 98.5q0 53 -43 81.5t-130 38.5l-75 9
q-98 11 -152 56.5t-54 125.5q0 64 34.5 110t94.5 70.5t133 24.5q138 0 252 -77l-37 -59q-95 67 -216 67z" />
    <glyph glyph-name="scedilla" unicode="&#x15f;" horiz-adv-x="490" 
d="M335.5 408.5q-43.5 13.5 -88.5 13.5q-53 0 -85 -21t-32 -58q0 -30 25.5 -47t77.5 -24l57 -7q76 -8 116 -40.5t40 -87.5q0 -58 -41.5 -95t-114.5 -47l-49 -157h-70l51 155q-49 2 -95 16.5t-83 42.5l30 50q33 -24 73 -38t95 -14q63 0 99 21t36 61q0 61 -104 73l-58 7
q-78 9 -116 42t-38 86q0 66 50.5 103.5t135.5 37.5q54 0 102.5 -14t83.5 -38l-26 -52q-28 18 -71.5 31.5z" />
    <glyph glyph-name="Scaron" unicode="&#x160;" horiz-adv-x="673" 
d="M353 796l95 98h70l-122 -143h-86l-122 143h71zM343 640q-82 0 -134 -35.5t-52 -96.5q0 -50 41 -79t126 -39l72 -9q216 -26 216 -181q0 -67 -37 -114t-100 -71t-140 -24t-150.5 25t-123.5 64l38 58q42 -32 105 -55t130 -23q89 0 145.5 34.5t56.5 98.5q0 53 -43 81.5
t-130 38.5l-75 9q-98 11 -152 56.5t-54 125.5q0 64 34.5 110t94.5 70.5t133 24.5q138 0 252 -77l-37 -59q-95 67 -216 67z" />
    <glyph glyph-name="scaron" unicode="&#x161;" horiz-adv-x="490" 
d="M254 589l94 98h71l-122 -143h-87l-122 143h72zM335.5 408.5q-43.5 13.5 -88.5 13.5q-53 0 -85 -21t-32 -58q0 -30 25.5 -47t77.5 -24l57 -7q76 -8 116 -40.5t40 -87.5q0 -68 -56 -107t-149 -39q-54 0 -105.5 15t-91.5 46l30 50q33 -24 73 -38t95 -14q63 0 99 21t36 61
q0 61 -104 73l-58 7q-78 9 -116 42t-38 86q0 66 50.5 103.5t135.5 37.5q54 0 102.5 -14t83.5 -38l-26 -52q-28 18 -71.5 31.5z" />
    <glyph glyph-name="uni021A" unicode="&#x21a;" horiz-adv-x="608" 
d="M340 632v-632h-2l-51 -162h-72l54 162h-2v632h-247v68h567v-68h-247z" />
    <glyph glyph-name="Tcaron" unicode="&#x164;" horiz-adv-x="608" 
d="M304 796l95 98h70l-122 -143h-87l-121 143h71zM340 632v-632h-73v632h-247v68h567v-68h-247z" />
    <glyph glyph-name="tcaron" unicode="&#x165;" horiz-adv-x="454" 
d="M273 723h68l-18 -197h-55zM200 412v-246q0 -55 27 -83t73 -28q29 0 55.5 9.5t47.5 25.5l30 -50q-27 -22 -63 -35.5t-77 -13.5q-77 0 -118.5 43.5t-41.5 129.5v248h-106v61h106v152h67v-152h211v-61h-211z" />
    <glyph glyph-name="Tbar" unicode="&#x166;" horiz-adv-x="608" 
d="M340 319v-319h-73v319h-163v68h163v245h-247v68h567v-68h-247v-245h164v-68h-164z" />
    <glyph glyph-name="tbar" unicode="&#x167;" horiz-adv-x="454" 
d="M200 412v-121h157v-58h-157v-67q0 -55 27 -83t73 -28q29 0 55.5 9.5t47.5 25.5l30 -50q-27 -22 -63 -35.5t-77 -13.5q-77 0 -118.5 43.5t-41.5 129.5v69h-102v58h102v121h-106v61h106v152h67v-152h211v-61h-211z" />
    <glyph glyph-name="Utilde" unicode="&#x168;" horiz-adv-x="754" 
d="M250.5 862.5q25.5 13.5 59.5 13.5q24 0 41 -6t40 -18q15 -9 26.5 -13.5t25.5 -4.5q20 0 36 9.5t32 28.5l39 -39q-22 -29 -47.5 -42.5t-59.5 -13.5q-24 0 -40 6t-40 18q-18 10 -28.5 14t-24.5 4q-19 0 -35 -9t-33 -29l-39 38q22 30 47.5 43.5zM625.5 119
q-37.5 -64 -102.5 -96t-147 -32t-146.5 32t-101.5 96t-37 155v426h72v-422q0 -107 59 -162t154 -55q97 0 155.5 55t58.5 162v422h73v-426q0 -91 -37.5 -155z" />
    <glyph glyph-name="utilde" unicode="&#x169;" horiz-adv-x="592" 
d="M174.5 655.5q25.5 13.5 59.5 13.5q24 0 41 -6t40 -18q15 -9 26.5 -13.5t25.5 -4.5q20 0 36 9.5t32 28.5l40 -38q-23 -30 -48.5 -44t-59.5 -14q-24 0 -41 6t-38 18q-16 10 -28 14.5t-26 4.5q-19 0 -35 -9t-33 -29l-39 39q22 29 47.5 42.5zM481.5 84.5q-28.5 -46.5 -77 -70
t-107.5 -23.5q-60 0 -108.5 23.5t-77 70t-28.5 112.5v276h67v-270q0 -71 40 -109.5t107 -38.5q66 0 106 38.5t40 109.5v270h67v-276q0 -66 -28.5 -112.5z" />
    <glyph glyph-name="Umacron" unicode="&#x16a;" horiz-adv-x="754" 
d="M526 850v-54h-298v54h298zM625.5 119q-37.5 -64 -102.5 -96t-147 -32t-146.5 32t-101.5 96t-37 155v426h72v-422q0 -107 59 -162t154 -55q97 0 155.5 55t58.5 162v422h73v-426q0 -91 -37.5 -155z" />
    <glyph glyph-name="umacron" unicode="&#x16b;" horiz-adv-x="592" 
d="M445 643v-55h-297v55h297zM481.5 84.5q-28.5 -46.5 -77 -70t-107.5 -23.5q-60 0 -108.5 23.5t-77 70t-28.5 112.5v276h67v-270q0 -71 40 -109.5t107 -38.5q66 0 106 38.5t40 109.5v270h67v-276q0 -66 -28.5 -112.5z" />
    <glyph glyph-name="Ubreve" unicode="&#x16c;" horiz-adv-x="754" 
d="M376 807q86 0 114 98l54 -16q-19 -67 -62.5 -103t-105.5 -36t-105 36t-61 103l54 16q27 -98 112 -98zM625.5 119q-37.5 -64 -102.5 -96t-147 -32t-146.5 32t-101.5 96t-37 155v426h72v-422q0 -107 59 -162t154 -55q97 0 155.5 55t58.5 162v422h73v-426q0 -91 -37.5 -155z
" />
    <glyph glyph-name="ubreve" unicode="&#x16d;" horiz-adv-x="592" 
d="M297 600q85 0 112 97l55 -16q-19 -67 -62 -102.5t-105 -35.5q-63 0 -106 35.5t-61 102.5l53 16q28 -97 114 -97zM481.5 84.5q-28.5 -46.5 -77 -70t-107.5 -23.5q-60 0 -108.5 23.5t-77 70t-28.5 112.5v276h67v-270q0 -71 40 -109.5t107 -38.5q66 0 106 38.5t40 109.5v270
h67v-276q0 -66 -28.5 -112.5z" />
    <glyph glyph-name="Uring" unicode="&#x16e;" horiz-adv-x="754" 
d="M298.5 773q-32.5 32 -32.5 78q0 45 32.5 77.5t77.5 32.5q46 0 79 -32.5t33 -77.5q0 -46 -33 -78t-79 -32q-45 0 -77.5 32zM423.5 803q19.5 20 19.5 48t-19.5 47.5t-47.5 19.5q-27 0 -46.5 -19.5t-19.5 -47.5t19.5 -48t46.5 -20q28 0 47.5 20zM625.5 119
q-37.5 -64 -102.5 -96t-147 -32t-146.5 32t-101.5 96t-37 155v426h72v-422q0 -107 59 -162t154 -55q97 0 155.5 55t58.5 162v422h73v-426q0 -91 -37.5 -155z" />
    <glyph glyph-name="uring" unicode="&#x16f;" horiz-adv-x="592" 
d="M218 566q-33 32 -33 78q0 45 33 77t79 32q45 0 77.5 -32t32.5 -77q0 -46 -32.5 -78t-77.5 -32q-46 0 -79 32zM343.5 596q19.5 20 19.5 48t-19.5 47.5t-46.5 19.5q-28 0 -47.5 -19.5t-19.5 -47.5t19.5 -48t47.5 -20q27 0 46.5 20zM481.5 84.5q-28.5 -46.5 -77 -70
t-107.5 -23.5q-60 0 -108.5 23.5t-77 70t-28.5 112.5v276h67v-270q0 -71 40 -109.5t107 -38.5q66 0 106 38.5t40 109.5v270h67v-276q0 -66 -28.5 -112.5z" />
    <glyph glyph-name="Uhungarumlaut" unicode="&#x170;" horiz-adv-x="754" 
d="M347 902h75l-112 -152h-68zM527 902h78l-121 -152h-68zM625.5 119q-37.5 -64 -102.5 -96t-147 -32t-146.5 32t-101.5 96t-37 155v426h72v-422q0 -107 59 -162t154 -55q97 0 155.5 55t58.5 162v422h73v-426q0 -91 -37.5 -155z" />
    <glyph glyph-name="uhungarumlaut" unicode="&#x171;" horiz-adv-x="592" 
d="M273 694h75l-112 -151h-68zM453 694h78l-122 -151h-67zM481.5 84.5q-28.5 -46.5 -77 -70t-107.5 -23.5q-60 0 -108.5 23.5t-77 70t-28.5 112.5v276h67v-270q0 -71 40 -109.5t107 -38.5q66 0 106 38.5t40 109.5v270h67v-276q0 -66 -28.5 -112.5z" />
    <glyph glyph-name="Uogonek" unicode="&#x172;" horiz-adv-x="754" 
d="M541 -195q-30 -12 -63 -12q-55 0 -90 28t-35 72q0 31 15.5 55.5t46.5 45.5q-26 -2 -39 -2q-85 0 -149.5 33.5t-100 97t-35.5 151.5v426h72v-422q0 -107 59 -162t154 -55q97 0 155.5 55t58.5 162v422h73v-426q0 -91 -36.5 -153.5t-102.5 -96.5q-54 -30 -80.5 -57.5
t-26.5 -60.5q0 -25 18.5 -40.5t47.5 -15.5q41 0 74 30l36 -41q-22 -22 -52 -34z" />
    <glyph glyph-name="uogonek" unicode="&#x173;" horiz-adv-x="592" 
d="M438 -195q-30 -12 -63 -12q-55 0 -90 28t-35 72q0 60 59 99q-65 -4 -116 20t-80.5 71.5t-29.5 113.5v276h67v-270q0 -71 40 -109.5t107 -38.5q66 0 106 38.5t40 109.5v270h67v-276q0 -61 -24 -104.5t-67 -68.5q-54 -32 -79.5 -58.5t-25.5 -59.5q0 -25 18.5 -40.5
t47.5 -15.5q41 0 74 30l36 -41q-22 -22 -52 -34z" />
    <glyph glyph-name="Wcircumflex" unicode="&#x174;" horiz-adv-x="1102" 
d="M551 851l-94 -99h-71l122 144h87l122 -144h-71zM752 0l-201 604l-201 -604h-88l-232 700h76l201 -618l205 618h80l204 -618l202 618h74l-232 -700h-88z" />
    <glyph glyph-name="wcircumflex" unicode="&#x175;" horiz-adv-x="863" 
d="M432 644l-94 -99h-72l122 143h87l122 -143h-70zM769 473h70l-181 -473h-79l-148 399l-147 -399h-79l-181 473h72l151 -402l148 402h74l149 -403z" />
    <glyph glyph-name="Ycircumflex" unicode="&#x176;" horiz-adv-x="639" 
d="M321 851l-95 -99h-71l122 144h87l122 -144h-71zM356 0h-72v298l-278 402h86l229 -336l228 336h84l-277 -403v-297z" />
    <glyph glyph-name="ycircumflex" unicode="&#x177;" horiz-adv-x="521" 
d="M264 644l-95 -99h-71l122 143h87l122 -143h-71zM52 -202l179 307l-220 368h76l182 -301l170 301h75l-388 -675h-74z" />
    <glyph glyph-name="Ydieresis" unicode="&#x178;" horiz-adv-x="639" 
d="M250 857q14 -14 14 -34t-13.5 -33t-33.5 -13t-33 13t-13 33t13.5 34t32.5 14t33 -14zM457 857q14 -14 14 -34t-14 -33t-34 -13t-33.5 13t-13.5 33t14 34t33 14q20 0 34 -14zM356 0h-72v298l-278 402h86l229 -336l228 336h84l-277 -403v-297z" />
    <glyph glyph-name="Zacute" unicode="&#x179;" horiz-adv-x="661" 
d="M372 902h84l-127 -152h-65zM157 68h443v-68h-539v57l441 575h-435v68h532v-56z" />
    <glyph glyph-name="zacute" unicode="&#x17a;" horiz-adv-x="531" 
d="M314 694h84l-126 -151h-66zM153 61h317v-61h-408v49l316 363h-306v61h394v-50z" />
    <glyph glyph-name="Zdotaccent" unicode="&#x17b;" horiz-adv-x="661" 
d="M361 859.5q14 -14.5 14 -34.5q0 -21 -14 -35t-35 -14q-20 0 -34 14t-14 35q0 20 14 34.5t34 14.5q21 0 35 -14.5zM157 68h443v-68h-539v57l441 575h-435v68h532v-56z" />
    <glyph glyph-name="zdotaccent" unicode="&#x17c;" horiz-adv-x="531" 
d="M302.5 674q13.5 -14 13.5 -34q0 -19 -13.5 -33t-33.5 -14t-33.5 13.5t-13.5 33.5t13.5 34t33.5 14t33.5 -14zM153 61h317v-61h-408v49l316 363h-306v61h394v-50z" />
    <glyph glyph-name="Zcaron" unicode="&#x17d;" horiz-adv-x="661" 
d="M332 796l95 98h71l-122 -143h-87l-121 143h70zM157 68h443v-68h-539v57l441 575h-435v68h532v-56z" />
    <glyph glyph-name="zcaron" unicode="&#x17e;" horiz-adv-x="531" 
d="M269 589l94 98h71l-122 -143h-87l-122 143h71zM153 61h317v-61h-408v49l316 363h-306v61h394v-50z" />
    <glyph glyph-name="longs" unicode="&#x17f;" horiz-adv-x="326" 
d="M372 692l-26 -55q-20 12 -46.5 20t-52.5 8q-96 0 -96 -114v-551h-67v551q0 82 38.5 130t118.5 48q73 0 131 -37z" />
    <glyph glyph-name="florin" unicode="&#x192;" horiz-adv-x="700" 
d="M382 333l-18 -179q-7 -77 -42.5 -120t-101.5 -43q-63 0 -116 35l25 53q17 -12 40 -19t46 -7q73 0 84 102l17 178h-134v60h140l16 154q8 76 43 119t101 43q60 0 115 -34l-24 -54q-17 12 -40 19t-46 7q-74 0 -84 -101l-15 -153h152v-60h-158z" />
    <glyph glyph-name="Gcaron" unicode="&#x1e6;" horiz-adv-x="816" 
d="M411 796l94 98h70l-121 -143h-87l-122 143h71zM572.5 678q70.5 -31 118.5 -87l-53 -51q-40 47 -95.5 73t-121.5 26q-80 0 -145 -36.5t-102.5 -102t-37.5 -150.5t37.5 -150.5t102 -102t142.5 -36.5q114 0 182.5 65.5t76.5 179.5h-228v66h306q1 -7 1 -20q0 -103 -42 -185
t-118.5 -129t-177.5 -47q-95 0 -177 44t-131 125.5t-49 189.5q0 104 47 185.5t129 127.5t184 46q81 0 151.5 -31z" />
    <glyph glyph-name="gcaron" unicode="&#x1e7;" horiz-adv-x="617" 
d="M299 589l95 98h71l-122 -143h-86l-122 143h70zM388.5 456q45.5 -25 74.5 -70v87h67v-440q0 -76 -32.5 -130.5t-88.5 -82t-128 -27.5q-59 0 -112 18t-88 49l31 50q73 -55 168 -55q80 0 131 45t51 131v62q-28 -45 -73.5 -70t-105.5 -25q-65 0 -117.5 31t-83 86t-30.5 125
t30.5 125t83 85.5t117.5 30.5q60 0 105.5 -25zM204 394.5q-39 -23.5 -61 -64.5t-22 -90q0 -50 22 -91t61 -64.5t89 -23.5t89.5 23.5t62 64.5t22.5 91t-22.5 90.5t-62 64t-89.5 23.5t-89 -23.5z" />
    <glyph glyph-name="Aringacute" unicode="&#x1fa;" horiz-adv-x="708" 
d="M392 1062h84l-126 -151h-66zM300 677q-27 14 -42.5 39.5t-15.5 56.5q0 44 32.5 76.5t78.5 32.5t78.5 -32.5t32.5 -76.5q0 -30 -15.5 -55t-41.5 -40l282 -678h-77l-81 199h-355l-82 -199h-75zM400.5 725q19.5 20 19.5 48t-19.5 47.5t-47.5 19.5q-27 0 -47 -19.5t-20 -47.5
t20 -48t47 -20q28 0 47.5 20zM502 267l-149 363l-150 -363h299z" />
    <glyph glyph-name="aringacute" unicode="&#x1fb;" horiz-adv-x="621" 
d="M334 918h84l-127 -151h-66zM216 551q-32 32 -32 78q0 45 32.5 77t77.5 32q46 0 78.5 -32.5t32.5 -76.5q0 -46 -32.5 -78t-78.5 -32t-78 32zM341.5 581q19.5 20 19.5 48t-19.5 47.5t-47.5 19.5t-47.5 -19.5t-19.5 -47.5t19.5 -48t47.5 -20t47.5 20zM467 0v86
q-29 -44 -75 -69.5t-105 -25.5q-65 0 -119 32t-85 88t-31 125t31 125t85 88t119 32q60 0 105.5 -25t74.5 -69v86h67v-473h-67zM205 394q-40 -24 -62 -65.5t-22 -92.5q0 -50 22.5 -91.5t62 -65.5t89.5 -24q51 0 90.5 23.5t62 65t22.5 92.5q0 52 -22.5 93.5t-62 65t-90.5 23.5
q-50 0 -90 -24z" />
    <glyph glyph-name="AEacute" unicode="&#x1fc;" horiz-adv-x="1136" 
d="M799 902h84l-126 -152h-67zM567 0v188h-323l-142 -188h-87l530 700h506v-67h-412v-247h399v-67h-399v-251h416v-68h-488zM567 616l-272 -360h272v360z" />
    <glyph glyph-name="aeacute" unicode="&#x1fd;" horiz-adv-x="905" 
d="M494 694h84l-126 -151h-67zM744.5 450q50.5 -31 79.5 -86t29 -125q0 -19 -1 -26h-387q7 -77 55.5 -120t118.5 -43q87 0 154 64l36 -45q-77 -78 -194 -78q-63 0 -113.5 26t-82.5 72q-35 -44 -87 -71t-118 -27q-84 0 -133 38.5t-49 101.5t50.5 100t145.5 37h148
q0 78 -35 115.5t-109 37.5q-77 0 -142 -50l-30 51q76 59 181 59q143 0 180 -109q28 51 78.5 80t111.5 29q63 0 113.5 -31zM519 378.5q-44 -42.5 -53 -111.5h319q-7 69 -50 111.5t-105 42.5q-67 0 -111 -42.5zM339 73.5q46 23.5 75 63.5q-14 32 -17 77h-141q-69 0 -101 -22
t-32 -60q0 -36 32.5 -59t89.5 -23q48 0 94 23.5z" />
    <glyph glyph-name="Oslashacute" unicode="&#x1fe;" horiz-adv-x="841" 
d="M460 902h84l-126 -152h-67zM547.5 688.5q59.5 -20.5 105.5 -59.5l80 80l46 -47l-78 -79q38 -46 58.5 -105.5t20.5 -127.5q0 -103 -47 -185t-128.5 -128t-183.5 -46q-68 0 -127.5 20.5t-105.5 59.5l-78 -79l-48 46l78 79q-38 47 -58.5 106.5t-20.5 126.5q0 103 46.5 185
t129 128t184.5 46q67 0 126.5 -20.5zM276 602.5q-65 -36.5 -102.5 -102t-37.5 -150.5q0 -105 58 -180l407 407q-36 30 -82 46t-98 16q-80 0 -145 -36.5zM647 530l-408 -407q76 -62 182 -62q80 0 144.5 36.5t102 102.5t37.5 150q0 105 -58 180z" />
    <glyph glyph-name="oslashacute" unicode="&#x1ff;" horiz-adv-x="597" 
d="M344 694h84l-127 -151h-66zM381.5 467.5q39.5 -13.5 70.5 -37.5l57 57l41 -40l-57 -57q25 -31 39 -70.5t14 -83.5q0 -69 -32.5 -125t-89.5 -88t-126 -32q-87 0 -154 51l-56 -57l-40 40l56 57q-25 31 -38.5 70.5t-13.5 83.5q0 69 32 125t88.5 88t125.5 32q44 0 83.5 -13.5
zM207.5 394.5q-40.5 -23.5 -64 -65t-23.5 -93.5q0 -60 32 -106l254 253q-46 35 -108 35q-50 0 -90.5 -23.5zM444 343l-253 -253q46 -35 107 -35q50 0 91 23.5t64.5 64.5t23.5 93q0 60 -33 107z" />
    <glyph glyph-name="Scommaaccent" unicode="&#x218;" horiz-adv-x="673" 
d="M343 640q-82 0 -134 -35.5t-52 -96.5q0 -50 41 -79t126 -39l72 -9q216 -26 216 -181q0 -67 -37 -114t-100 -71t-140 -24t-150.5 25t-123.5 64l38 58q42 -32 105 -55t130 -23q89 0 145.5 34.5t56.5 98.5q0 53 -43 81.5t-130 38.5l-75 9q-98 11 -152 56.5t-54 125.5
q0 64 34.5 110t94.5 70.5t133 24.5q138 0 252 -77l-37 -59q-95 67 -216 67zM361 -218h-58l22 174h72z" />
    <glyph glyph-name="scommaaccent" unicode="&#x219;" horiz-adv-x="490" 
d="M335.5 408.5q-43.5 13.5 -88.5 13.5q-53 0 -85 -21t-32 -58q0 -30 25.5 -47t77.5 -24l57 -7q76 -8 116 -40.5t40 -87.5q0 -68 -56 -107t-149 -39q-54 0 -105.5 15t-91.5 46l30 50q33 -24 73 -38t95 -14q63 0 99 21t36 61q0 61 -104 73l-58 7q-78 9 -116 42t-38 86
q0 66 50.5 103.5t135.5 37.5q54 0 102.5 -14t83.5 -38l-26 -52q-28 18 -71.5 31.5zM258 -218h-59l22 174h73z" />
    <glyph glyph-name="circumflex" unicode="&#x2c6;" horiz-adv-x="464" 
d="M232 644l-94 -98h-71l122 142h87l122 -142h-71z" />
    <glyph glyph-name="caron" unicode="&#x2c7;" horiz-adv-x="464" 
d="M232 589l94 98h72l-122 -143h-87l-122 143h71z" />
    <glyph glyph-name="breve" unicode="&#x2d8;" horiz-adv-x="464" 
d="M161 624.5q29 -24.5 71 -24.5t71 24.5t42 72.5l54 -16q-18 -67 -61.5 -102.5t-105.5 -35.5t-105.5 35.5t-60.5 102.5l53 16q13 -48 42 -72.5z" />
    <glyph glyph-name="dotaccent" unicode="&#x2d9;" horiz-adv-x="269" 
d="M168.5 674q13.5 -14 13.5 -34q0 -19 -13.5 -33t-33.5 -14t-33.5 13.5t-13.5 33.5t13.5 34t33.5 14t33.5 -14z" />
    <glyph glyph-name="ring" unicode="&#x2da;" horiz-adv-x="459" 
d="M151.5 566q-32.5 32 -32.5 78q0 45 32.5 77t77.5 32q46 0 79 -32t33 -77q0 -46 -33 -78t-79 -32q-45 0 -77.5 32zM276.5 596q19.5 20 19.5 48t-19.5 47.5t-47.5 19.5q-27 0 -46.5 -19.5t-19.5 -47.5t19.5 -48t46.5 -20q28 0 47.5 20z" />
    <glyph glyph-name="ogonek" unicode="&#x2db;" horiz-adv-x="540" 
d="M398 -195q-30 -12 -63 -12q-55 0 -89 29t-34 77t37 81.5t108 65.5l33 -35q-60 -27 -87.5 -50.5t-27.5 -54.5q0 -25 18 -40.5t47 -15.5q41 0 74 30l36 -41q-22 -22 -52 -34z" />
    <glyph glyph-name="tilde" unicode="&#x2dc;" horiz-adv-x="464" 
d="M106.5 655q25.5 14 59.5 14q24 0 41 -6t40 -18q15 -9 26.5 -13.5t25.5 -4.5q19 0 35 9t33 29l40 -38q-23 -30 -48.5 -44t-59.5 -14q-25 0 -41.5 6.5t-38.5 18.5q-18 10 -28.5 14t-24.5 4q-20 0 -36 -9.5t-32 -28.5l-39 39q22 28 47.5 42z" />
    <glyph glyph-name="hungarumlaut" unicode="&#x2dd;" horiz-adv-x="464" 
d="M149 694h84l-126 -151h-66zM339 694h84l-126 -151h-67z" />
    <glyph glyph-name="gravecomb" unicode="&#x300;" horiz-adv-x="0" 
d="M-350 694l108 -151h-66l-126 151h84z" />
    <glyph glyph-name="acutecomb" unicode="&#x301;" horiz-adv-x="0" 
d="M-254 694h84l-127 -151h-65z" />
    <glyph glyph-name="tildecomb" unicode="&#x303;" horiz-adv-x="0" 
d="M-421.5 655.5q25.5 13.5 59.5 13.5q24 0 41 -6t40 -18q15 -9 26.5 -13.5t25.5 -4.5q20 0 36 9.5t32 28.5l40 -38q-23 -30 -48.5 -44t-59.5 -14q-24 0 -41 6t-38 18q-16 10 -28 14.5t-26 4.5q-19 0 -35 -9t-33 -29l-39 39q22 29 47.5 42.5z" />
    <glyph glyph-name="dotbelowcomb" unicode="&#x323;" horiz-adv-x="0" 
d="M-265.5 -98.5q13.5 -13.5 13.5 -33.5t-14 -33.5t-33 -13.5q-20 0 -33 13.5t-13 33.5t13 33.5t33 13.5t33.5 -13.5z" />
    <glyph glyph-name="pi" unicode="&#x3c0;" horiz-adv-x="598" 
d="M449 0v412h-294v-412h-67v473h428v-473h-67z" />
    <glyph glyph-name="Wgrave" unicode="&#x1e80;" horiz-adv-x="1102" 
d="M508 902l108 -152h-66l-126 152h84zM752 0l-201 604l-201 -604h-88l-232 700h76l201 -618l205 618h80l204 -618l202 618h74l-232 -700h-88z" />
    <glyph glyph-name="wgrave" unicode="&#x1e81;" horiz-adv-x="863" 
d="M381 694l109 -151h-67l-126 151h84zM769 473h70l-181 -473h-79l-148 399l-147 -399h-79l-181 473h72l151 -402l148 402h74l149 -403z" />
    <glyph glyph-name="Wacute" unicode="&#x1e82;" horiz-adv-x="1102" 
d="M591 902h84l-127 -152h-66zM752 0l-201 604l-201 -604h-88l-232 700h76l201 -618l205 618h80l204 -618l202 618h74l-232 -700h-88z" />
    <glyph glyph-name="wacute" unicode="&#x1e83;" horiz-adv-x="863" 
d="M478 694h84l-127 -151h-66zM769 473h70l-181 -473h-79l-148 399l-147 -399h-79l-181 473h72l151 -402l148 402h74l149 -403z" />
    <glyph glyph-name="Wdieresis" unicode="&#x1e84;" horiz-adv-x="1102" 
d="M481.5 857q13.5 -14 13.5 -34t-13.5 -33t-33.5 -13t-33.5 13t-13.5 33t14 34t33 14q20 0 33.5 -14zM688 857q14 -14 14 -34t-14 -33t-34 -13t-33 13t-13 33t13 34t33 14t34 -14zM752 0l-201 604l-201 -604h-88l-232 700h76l201 -618l205 618h80l204 -618l202 618h74
l-232 -700h-88z" />
    <glyph glyph-name="wdieresis" unicode="&#x1e85;" horiz-adv-x="863" 
d="M361.5 649.5q13.5 -13.5 13.5 -33.5t-13.5 -33.5t-33.5 -13.5q-19 0 -32.5 13.5t-13.5 33.5t13.5 33.5t32.5 13.5q20 0 33.5 -13.5zM568.5 649.5q13.5 -13.5 13.5 -33.5q0 -19 -13.5 -33t-33.5 -14t-33.5 13.5t-13.5 33.5t13.5 33.5t33.5 13.5t33.5 -13.5zM769 473h70
l-181 -473h-79l-148 399l-147 -399h-79l-181 473h72l151 -402l148 402h74l149 -403z" />
    <glyph glyph-name="Ygrave" unicode="&#x1ef2;" horiz-adv-x="639" 
d="M276 902l109 -152h-66l-127 152h84zM356 0h-72v298l-278 402h86l229 -336l228 336h84l-277 -403v-297z" />
    <glyph glyph-name="ygrave" unicode="&#x1ef3;" horiz-adv-x="521" 
d="M213 694l108 -151h-66l-126 151h84zM52 -202l179 307l-220 368h76l182 -301l170 301h75l-388 -675h-74z" />
    <glyph glyph-name="figuredash" unicode="&#x2012;" 
d="M62 234v60h477v-60h-477z" />
    <glyph glyph-name="endash" unicode="&#x2013;" horiz-adv-x="598" 
d="M61 234v60h476v-60h-476z" />
    <glyph glyph-name="emdash" unicode="&#x2014;" horiz-adv-x="811" 
d="M31 234v60h750v-60h-750z" />
    <glyph glyph-name="quoteleft" unicode="&#x2018;" horiz-adv-x="247" 
d="M122 720h58l-31 -249h-78z" />
    <glyph glyph-name="quoteright" unicode="&#x2019;" horiz-adv-x="247" 
d="M125 471h-57l31 249h78z" />
    <glyph glyph-name="quotesinglbase" unicode="&#x201a;" horiz-adv-x="247" 
d="M125 -127h-57l31 250h78z" />
    <glyph glyph-name="quotedblleft" unicode="&#x201c;" horiz-adv-x="421" 
d="M122 720h58l-31 -249h-78zM296 720h58l-32 -249h-77z" />
    <glyph glyph-name="quotedblright" unicode="&#x201d;" horiz-adv-x="421" 
d="M125 471h-57l31 249h78zM300 471h-59l31 249h79z" />
    <glyph glyph-name="quotedblbase" unicode="&#x201e;" horiz-adv-x="421" 
d="M125 -127h-57l31 250h78zM300 -127h-59l31 250h79z" />
    <glyph glyph-name="dagger" unicode="&#x2020;" horiz-adv-x="363" 
d="M154 563h-103v54h103v103h55v-103h103v-54h-103v-219h-55v219z" />
    <glyph glyph-name="daggerdbl" unicode="&#x2021;" horiz-adv-x="363" 
d="M312 629v-53h-103v-89h103v-54h-103v-90h-55v90h-103v54h103v89h-103v53h103v91h55v-91h103z" />
    <glyph glyph-name="bullet" unicode="&#x2022;" horiz-adv-x="438" 
d="M292.5 337.5q30.5 -30.5 30.5 -73.5t-30.5 -74t-73.5 -31q-44 0 -74.5 30.5t-30.5 74.5t30.5 74t74.5 30q43 0 73.5 -30.5z" />
    <glyph glyph-name="ellipsis" unicode="&#x2026;" horiz-adv-x="723" 
d="M169.5 86q16.5 -16 16.5 -38q0 -23 -16.5 -39.5t-38.5 -16.5t-38.5 17t-16.5 39t16.5 38t38.5 16t38.5 -16zM400 86q16 -16 16 -38q0 -23 -16 -39.5t-38 -16.5t-38.5 16.5t-16.5 39.5q0 22 16.5 38t38.5 16t38 -16zM630.5 86q16.5 -16 16.5 -38t-16.5 -39t-38.5 -17
t-38.5 16.5t-16.5 39.5q0 22 16.5 38t38.5 16t38.5 -16z" />
    <glyph glyph-name="perthousand" unicode="&#x2030;" horiz-adv-x="1379" 
d="M321.5 685.5q41.5 -23.5 65 -64.5t23.5 -91q0 -51 -23.5 -91.5t-65 -64t-92.5 -23.5q-50 0 -91.5 23.5t-65 64t-23.5 91.5q0 50 23.5 91t65 64.5t91.5 23.5q51 0 92.5 -23.5zM223 0l445 700h70l-445 -700h-70zM144 616.5q-34 -34.5 -34 -86.5t34 -86.5t85 -34.5
t85.5 34.5t34.5 86.5t-34.5 86.5t-85.5 34.5t-85 -34.5zM823.5 325.5q41.5 -23.5 65.5 -64.5t24 -91t-24 -91t-65.5 -64.5t-92.5 -23.5q-50 0 -91 23.5t-64.5 64.5t-23.5 91t23.5 91t64.5 64.5t91 23.5q51 0 92.5 -23.5zM1241.5 326q41.5 -23 65 -64t23.5 -92
q0 -50 -23.5 -91t-65 -64.5t-92.5 -23.5q-50 0 -91.5 23.5t-65 64.5t-23.5 91t23.5 91t65 64.5t91.5 23.5q51 0 92.5 -23zM646.5 257.5q-33.5 -34.5 -33.5 -87.5q0 -52 34 -86t84 -34q52 0 86 34t34 86q0 53 -34 87.5t-86 34.5q-51 0 -84.5 -34.5zM1064.5 257.5
q-33.5 -34.5 -33.5 -87.5q0 -52 33.5 -86t84.5 -34q52 0 85.5 34t33.5 86q0 53 -33.5 87.5t-85.5 34.5q-51 0 -84.5 -34.5z" />
    <glyph glyph-name="minute" unicode="&#x2032;" horiz-adv-x="269" 
d="M132 387h-64l66 313h65z" />
    <glyph glyph-name="second" unicode="&#x2033;" horiz-adv-x="423" 
d="M132 387h-64l66 313h65zM286 387h-64l67 313h63z" />
    <glyph glyph-name="guilsinglleft" unicode="&#x2039;" horiz-adv-x="311" 
d="M162 80l-96 184l96 184h72l-97 -184l97 -184h-72z" />
    <glyph glyph-name="guilsinglright" unicode="&#x203a;" horiz-adv-x="311" 
d="M149 448l96 -184l-96 -183h-72l97 183l-97 184h72z" />
    <glyph glyph-name="fraction" unicode="&#x2044;" horiz-adv-x="214" 
d="M-147 0l442 700h66l-442 -700h-66z" />
    <glyph glyph-name="trademark" unicode="&#x2122;" horiz-adv-x="693" 
d="M605 637l-86 -189h-48l-86 189v-220h-49v284h69l90 -198l90 198h68v-284h-48v220zM137 656h-96v44h241v-44h-97v-239h-48v239z" />
    <glyph glyph-name="uni03A9" unicode="&#x3a9;" horiz-adv-x="858" 
d="M110.5 184q-41.5 73 -41.5 165q0 104 47 186t129 128t184 46t184 -46t129 -128t47 -186q0 -92 -41 -165t-113 -116h182v-68h-298v59q88 27 141 103.5t53 181.5q0 87 -37 154t-102 104t-145 37t-144.5 -37t-102 -104t-37.5 -154q0 -105 53.5 -181t140.5 -104v-59h-298v68
h183q-72 43 -113.5 116z" />
    <glyph glyph-name="estimated" unicode="&#x212e;" horiz-adv-x="1000" 
d="M235 96.5q11 -27.5 40 -48.5q99 -72 225 -72q97 0 178.5 42.5t132.5 117.5l21 -16q-54 -81 -141.5 -126t-190.5 -45q-109 0 -200.5 50.5t-144.5 141.5t-53 209t53 209t144.5 141.5t200.5 50.5q110 0 201 -50.5t144 -141.5t53 -209v-13h-674v-174q0 -39 11 -66.5zM781 533
q0 39 -11.5 66.5t-39.5 48.5q-47 37 -106 56.5t-124 19.5q-128 0 -225 -72q-29 -21 -40 -48.5t-11 -66.5v-173h557v169z" />
    <glyph glyph-name="uni2153" unicode="&#x2153;" horiz-adv-x="831" 
d="M138 313v316l-113 -46v54l167 67v-391h-54zM136 0l441 700h67l-442 -700h-66zM743.5 362q37.5 -29 37.5 -76q0 -33 -18 -56t-49 -35q34 -11 54.5 -34.5t20.5 -55.5q0 -53 -41 -81.5t-99 -28.5q-40 0 -72.5 13.5t-54.5 37.5l31 36q39 -37 94 -37q36 0 60.5 16.5t24.5 47.5
q0 28 -25.5 45t-62.5 17h-51v48h51q35 0 57.5 16.5t22.5 46.5q0 27 -22 43.5t-58 16.5q-28 0 -50.5 -11t-37.5 -30l-33 34q44 56 123 56q60 0 97.5 -29z" />
    <glyph glyph-name="uni2154" unicode="&#x2154;" horiz-adv-x="897" 
d="M159 704q59 0 93 -33t34 -86q0 -33 -14 -59.5t-42 -54.5l-106 -107h175v-51h-254v43l146 146q39 37 39 79q0 31 -20.5 51t-55.5 20q-29 0 -49.5 -12.5t-37.5 -35.5l-35 35q48 65 127 65zM201 0l442 700h66l-441 -700h-67zM809 362q37 -29 37 -76q0 -33 -17.5 -56
t-48.5 -35q34 -11 54 -34.5t20 -55.5q0 -53 -40.5 -81.5t-98.5 -28.5q-80 0 -128 51l32 36q39 -37 93 -37q37 0 61.5 16.5t24.5 47.5q0 28 -25.5 45t-63.5 17h-50v48h51q35 0 57.5 16.5t22.5 46.5q0 27 -22.5 43.5t-58.5 16.5q-53 0 -87 -41l-33 34q44 56 123 56
q60 0 97 -29z" />
    <glyph glyph-name="oneeighth" unicode="&#x215b;" horiz-adv-x="865" 
d="M138 313v316l-113 -46v54l167 67v-391h-54zM136 0l441 700h67l-442 -700h-66zM773.5 363q39.5 -28 39.5 -77q0 -34 -19 -56.5t-50 -33.5q35 -12 57 -35t22 -58q0 -50 -42.5 -79t-105.5 -29q-64 0 -106.5 29t-42.5 79q0 35 22 58t57 35q-31 11 -50 33.5t-19 56.5
q0 49 40 77t99 28t98.5 -28zM617 327.5q-23 -16.5 -23 -45.5q0 -30 23 -47t58 -17t57.5 17t22.5 47q0 29 -23 45.5t-57 16.5q-35 0 -58 -16.5zM611 156.5q-26 -17.5 -26 -47.5q0 -32 25.5 -49.5t64.5 -17.5q38 0 63.5 17.5t25.5 49.5q0 30 -25.5 47.5t-63.5 17.5t-64 -17.5z
" />
    <glyph glyph-name="threeeighths" unicode="&#x215c;" horiz-adv-x="917" 
d="M246 675q37 -29 37 -76q0 -33 -17 -56t-48 -35q34 -11 54 -34.5t20 -55.5q0 -53 -40.5 -81t-98.5 -28q-81 0 -128 50l31 36q39 -37 94 -37q37 0 61 16.5t24 47.5q0 28 -25.5 45t-62.5 17h-51v48h52q34 0 56.5 16.5t22.5 46.5q0 27 -22 43.5t-57 16.5q-55 0 -89 -41
l-33 34q46 56 124 56q59 0 96 -29zM188 0l441 700h67l-442 -700h-66zM825 363q40 -28 40 -77q0 -34 -19 -56.5t-51 -33.5q36 -11 57.5 -34.5t21.5 -58.5q0 -50 -42.5 -79t-105.5 -29t-105.5 29t-42.5 79q0 35 21.5 58.5t57.5 34.5q-32 11 -51 33.5t-19 56.5q0 49 40 77
t99 28t99 -28zM669 327.5q-23 -16.5 -23 -45.5q0 -30 22.5 -47t57.5 -17t58 17t23 47q0 29 -23 45.5t-58 16.5q-34 0 -57 -16.5zM662.5 156.5q-25.5 -17.5 -25.5 -47.5q0 -32 25 -49.5t64 -17.5t64 17.5t25 49.5q0 30 -25.5 47.5t-63.5 17.5t-63.5 -17.5z" />
    <glyph glyph-name="fiveeighths" unicode="&#x215d;" horiz-adv-x="929" 
d="M116 649l-2 -101h48q69 0 106 -31t37 -83q0 -57 -39 -91t-99 -34q-42 0 -76.5 14t-58.5 41l32 37q19 -20 46 -31.5t56 -11.5q39 0 61 19.5t22 52.5q0 32 -24.5 51t-73.5 19h-88l6 200h217v-51h-170zM200 0l441 700h67l-442 -700h-66zM837.5 363q39.5 -28 39.5 -77
q0 -65 -70 -90q36 -11 58 -34.5t22 -58.5q0 -50 -42.5 -79t-105.5 -29q-64 0 -106 29t-42 79q0 36 21.5 59t57.5 34q-32 11 -51 33.5t-19 56.5q0 49 39.5 77t99.5 28q59 0 98.5 -28zM682 327.5q-23 -16.5 -23 -45.5q0 -30 22.5 -47t57.5 -17t58 17t23 47q0 29 -23 45.5
t-58 16.5q-34 0 -57 -16.5zM675.5 156.5q-25.5 -17.5 -25.5 -47.5q0 -32 25 -49.5t64 -17.5t64 17.5t25 49.5q0 30 -25.5 47.5t-63.5 17.5t-63.5 -17.5z" />
    <glyph glyph-name="seveneighths" unicode="&#x215e;" horiz-adv-x="851" 
d="M131 313h-64l170 335h-207v52h271v-43zM122 0l441 700h67l-442 -700h-66zM759.5 363q39.5 -28 39.5 -77q0 -34 -19 -56.5t-51 -33.5q36 -11 57.5 -34.5t21.5 -58.5q0 -50 -42 -79t-105 -29q-64 0 -106.5 29t-42.5 79q0 35 21.5 58.5t57.5 34.5q-32 11 -50.5 33.5
t-18.5 56.5q0 49 39.5 77t99.5 28q59 0 98.5 -28zM603 327.5q-23 -16.5 -23 -45.5q0 -30 23 -47t58 -17q34 0 57 17t23 47q0 29 -23 45.5t-57 16.5q-35 0 -58 -16.5zM596.5 156.5q-25.5 -17.5 -25.5 -47.5q0 -32 25.5 -49.5t64.5 -17.5q38 0 63 17.5t25 49.5q0 30 -25 47.5
t-63 17.5q-39 0 -64.5 -17.5z" />
    <glyph glyph-name="partialdiff" unicode="&#x2202;" horiz-adv-x="592" 
d="M359.5 603.5q83.5 -76.5 130 -171t46.5 -192.5q0 -70 -32.5 -126.5t-89.5 -89.5t-126 -33t-125 31.5t-88.5 86.5t-32.5 122q0 68 30.5 123t84 86.5t119.5 31.5q50 0 92.5 -21.5t71.5 -60.5q-71 178 -302 283l32 52q106 -45 189.5 -121.5zM198 386q-41 -23 -64 -63
t-23 -91t23 -91.5t64 -63.5t91 -23t90.5 23t63.5 63.5t23 91.5t-23 91t-63.5 63t-90.5 23t-91 -23z" />
    <glyph glyph-name="uni0394" unicode="&#x394;" horiz-adv-x="708" 
d="M667 0h-626v57l269 644h88l269 -644v-57zM586 68l-232 560l-232 -560h464z" />
    <glyph glyph-name="product" unicode="&#x220f;" horiz-adv-x="729" 
d="M556 -133v765h-382v-765h-73v833h527v-833h-72z" />
    <glyph glyph-name="summation" unicode="&#x2211;" horiz-adv-x="656" 
d="M168 632l282 -322v-41l-284 -334h429v-68h-534v57l312 364l-311 356v56h532v-68h-426z" />
    <glyph glyph-name="minus" unicode="&#x2212;" 
d="M85 234v60h430v-60h-430z" />
    <glyph glyph-name="radical" unicode="&#x221a;" horiz-adv-x="617" 
d="M218 -133l-202 501h80l167 -416l262 768h74l-291 -853h-90z" />
    <glyph glyph-name="infinity" unicode="&#x221e;" horiz-adv-x="812" 
d="M115 98q-40 23 -64 65t-24 97q0 56 24 98t64 65t88 23q37 0 68.5 -17t58 -43t76.5 -80q47 52 75 79t60 44t69 17q48 0 88 -23t64 -65t24 -98q0 -55 -24 -97t-64 -65t-88 -23q-37 0 -69 17t-60 44.5t-75 79.5q-47 -53 -75 -80t-59.5 -44t-68.5 -17q-48 0 -88 23z
M269.5 162q31.5 26 95.5 98q-46 51 -69 74.5t-45.5 37t-47.5 13.5q-48 0 -80.5 -33.5t-32.5 -91.5q0 -57 32.5 -90.5t80.5 -33.5q35 0 66.5 26zM690.5 169.5q32.5 33.5 32.5 90.5q0 58 -32.5 91.5t-80.5 33.5q-35 0 -66 -25.5t-97 -99.5q66 -73 97 -98.5t66 -25.5
q48 0 80.5 33.5z" />
    <glyph glyph-name="integral" unicode="&#x222b;" horiz-adv-x="338" 
d="M279 645q-47 0 -68.5 -27.5t-21.5 -80.5v-506q0 -80 -36.5 -126t-114.5 -46q-33 0 -57 7l17 60q22 -4 35 -4q90 0 90 109v506q0 80 37 126t114 46q33 0 58 -7l-18 -61q-15 4 -35 4z" />
    <glyph glyph-name="congruent" unicode="&#x2245;" 
d="M464 499.5q-31 -14.5 -73 -14.5q-31 0 -53 6.5t-50 18.5q-23 10 -41 15.5t-42 5.5q-27 0 -47.5 -10.5t-43.5 -34.5l-36 42q27 31 58 45.5t72 14.5q32 0 53 -6t51 -19q24 -11 42 -16t42 -5q26 0 47 11t43 34l35 -42q-26 -31 -57 -45.5zM85 325v59h430v-59h-430zM85 144v60
h430v-60h-430z" />
    <glyph glyph-name="approxequal" unicode="&#x2248;" 
d="M464 317.5q-31 -14.5 -73 -14.5q-32 0 -54.5 6t-48.5 18q-23 10 -41 15.5t-42 5.5q-27 0 -47.5 -10.5t-43.5 -33.5l-36 42q27 31 58 45.5t72 14.5q32 0 53 -6t51 -19q24 -11 42 -16t42 -5q26 0 47 11t43 34l35 -42q-26 -31 -57 -45.5zM464 137.5q-31 -14.5 -73 -14.5
q-31 0 -53 6.5t-50 18.5q-23 10 -41 15.5t-42 5.5q-27 0 -47.5 -10.5t-43.5 -34.5l-36 43q27 31 58 45.5t72 14.5q32 0 53 -6t51 -19q24 -11 42 -16t42 -5q26 0 47 11t43 34l35 -43q-26 -31 -57 -45.5z" />
    <glyph glyph-name="notequal" unicode="&#x2260;" 
d="M274 144l-62 -128h-63l61 128h-125v60h155l58 121h-213v59h241l62 128h64l-62 -128h125v-59h-154l-58 -121h212v-60h-241z" />
    <glyph glyph-name="lessequal" unicode="&#x2264;" 
d="M177 344l318 -132v-71l-389 170v67l389 170v-71zM495 91v-60h-389v60h389z" />
    <glyph glyph-name="greaterequal" unicode="&#x2265;" 
d="M495 378v-67l-389 -170v71l318 132l-318 133v71zM106 31v60h389v-60h-389z" />
    <glyph glyph-name="dotmath" unicode="&#x22c5;" 
d="M339 303q16 -16 16 -39q0 -22 -16.5 -38.5t-38.5 -16.5t-38.5 16.5t-16.5 38.5t16.5 38.5t38.5 16.5q23 0 39 -16z" />
    <glyph glyph-name="lozenge" unicode="&#x25ca;" horiz-adv-x="775" 
d="M350 0l-299 350l299 350h75l299 -350l-299 -350h-75zM138 351l251 -289l248 288l-251 288z" />
    <glyph glyph-name="uniEA00" unicode="&#xea00;" horiz-adv-x="900" 
d="M581 280l81 -248l-211 153l-211 -153l80 248l-210 153h261l80 248l80 -248h260zM451 235l134 -97l-52 158l134 97h-165l-51 157v-315z" />
    <glyph glyph-name="uniEA01" unicode="&#xea01;" horiz-adv-x="900" 
d="M320 280l-210 153h261l80 248v-496l-211 -153z" />
    <glyph glyph-name="i.latn_TRK" horiz-adv-x="243" 
d="M155.5 674q13.5 -14 13.5 -34q0 -19 -13.5 -33t-33.5 -14t-33.5 13.5t-13.5 33.5t13.5 34t33.5 14t33.5 -14zM88 0v473h67v-473h-67z" />
    <glyph glyph-name="j.latn_NLD" horiz-adv-x="244" 
d="M169 694h84l-127 -151h-66zM127.5 -174.5q-29.5 -32.5 -81.5 -32.5q-18 0 -36.5 4.5t-30.5 11.5l14 58q24 -11 46 -11q51 0 51 64v553h67v-556q0 -59 -29.5 -91.5z" />
    <glyph glyph-name="Ldot.latn_CAT" horiz-adv-x="602" 
d="M101 0v700h73v-632h408v-68h-481zM459 387.5q14 -14.5 14 -34.5t-14 -34t-35 -14q-20 0 -34 14t-14 34t14 34.5t34 14.5q21 0 35 -14.5z" />
    <glyph glyph-name="ldot.latn_CAT" horiz-adv-x="296" 
d="M88 0v720h67v-720h-67zM301.5 399q13.5 -14 13.5 -34q0 -19 -13 -32.5t-33 -13.5t-33 13t-13 33t13 34t33 14q19 0 32.5 -14z" />
    <glyph glyph-name="zero.numr" horiz-adv-x="428" 
d="M297.5 680.5q37.5 -23.5 59 -68.5t21.5 -106q0 -60 -21.5 -105t-59 -68.5t-83.5 -23.5t-83.5 23.5t-59 68.5t-21.5 105q0 61 21.5 106t59 68.5t83.5 23.5t83.5 -23.5zM137 613q-31 -39 -31 -107q0 -67 31 -106t77 -39q47 0 77.5 38.5t30.5 106.5t-30.5 107t-77.5 39
q-46 0 -77 -39z" />
    <glyph glyph-name="one.numr" horiz-adv-x="272" 
d="M138 313v316l-113 -46v54l167 67v-391h-54z" />
    <glyph glyph-name="two.numr" horiz-adv-x="334" 
d="M159 704q59 0 93 -33t34 -86q0 -33 -14 -59.5t-42 -54.5l-106 -107h175v-51h-254v43l146 146q39 37 39 79q0 31 -20.5 51t-55.5 20q-29 0 -49.5 -12.5t-37.5 -35.5l-35 35q48 65 127 65z" />
    <glyph glyph-name="three.numr" horiz-adv-x="334" 
d="M246 675q37 -29 37 -76q0 -33 -17 -56t-48 -35q34 -11 54 -34.5t20 -55.5q0 -53 -40.5 -81t-98.5 -28q-81 0 -128 50l31 36q39 -37 94 -37q37 0 61 16.5t24 47.5q0 28 -25.5 45t-62.5 17h-51v48h52q34 0 56.5 16.5t22.5 46.5q0 27 -22 43.5t-57 16.5q-55 0 -89 -41
l-33 34q46 56 124 56q59 0 96 -29z" />
    <glyph glyph-name="four.numr" horiz-adv-x="340" 
d="M320 440v-49h-62v-78h-55v78h-183v39l137 269h60l-132 -259h118v84l13 25h42v-109h62z" />
    <glyph glyph-name="five.numr" horiz-adv-x="350" 
d="M116 649l-2 -101h48q69 0 106 -31t37 -83q0 -57 -39 -91t-99 -34q-42 0 -76.5 14t-58.5 41l32 37q19 -20 46 -31.5t56 -11.5q39 0 61 19.5t22 52.5q0 32 -24.5 51t-73.5 19h-88l6 200h217v-51h-170z" />
    <glyph glyph-name="six.numr" horiz-adv-x="348" 
d="M180 562q60 0 98 -36t38 -89q0 -55 -40.5 -91.5t-102.5 -36.5q-61 0 -102 36t-41 91q0 43 30 87l113 177h65l-97 -145q19 7 39 7zM111 493.5q-24 -22.5 -24 -57.5q0 -34 24 -56.5t62 -22.5t62 22.5t24 56.5q0 35 -24 57.5t-62 22.5t-62 -22.5z" />
    <glyph glyph-name="seven.numr" horiz-adv-x="327" 
d="M131 313h-64l170 335h-207v52h271v-43z" />
    <glyph glyph-name="eight.numr" horiz-adv-x="381" 
d="M289.5 676q39.5 -28 39.5 -77q0 -65 -70 -90q36 -11 57.5 -34t21.5 -59q0 -50 -42 -78.5t-105 -28.5q-64 0 -106 28.5t-42 78.5q0 36 21.5 59t57.5 34q-70 25 -70 90q0 49 39.5 77t99.5 28q59 0 98.5 -28zM133.5 640.5q-22.5 -16.5 -22.5 -45.5q0 -30 22.5 -47t57.5 -17
t57.5 17t22.5 47q0 29 -23 45.5t-57 16.5q-35 0 -57.5 -16.5zM127.5 469.5q-25.5 -17.5 -25.5 -47.5q0 -32 25 -49.5t64 -17.5q38 0 63 17.5t25 49.5q0 30 -25 47.5t-63 17.5t-63.5 -17.5z" />
    <glyph glyph-name="nine.numr" horiz-adv-x="348" 
d="M168 451q-60 0 -97.5 36t-37.5 89q0 55 40 91.5t102 36.5t103 -36t41 -91q0 -42 -30 -88l-113 -176h-66l97 145q-21 -7 -39 -7zM237 519.5q24 22.5 25 57.5q0 35 -24.5 57t-62.5 22q-37 0 -61 -22.5t-24 -56.5q0 -35 24 -57.5t61 -22.5q38 0 62 22.5z" />
    <glyph glyph-name="zero.dnom" horiz-adv-x="428" 
d="M297.5 367.5q37.5 -23.5 59 -68.5t21.5 -106q0 -60 -21.5 -105t-59 -69t-83.5 -24t-83.5 24t-59 69t-21.5 105q0 61 21.5 106t59 68.5t83.5 23.5t83.5 -23.5zM137 300q-31 -39 -31 -107q0 -67 31 -106t77 -39q47 0 77.5 38.5t30.5 106.5t-30.5 107t-77.5 39
q-46 0 -77 -39z" />
    <glyph glyph-name="one.dnom" horiz-adv-x="272" 
d="M138 0v316l-113 -46v54l167 67v-391h-54z" />
    <glyph glyph-name="two.dnom" horiz-adv-x="334" 
d="M159 391q59 0 93 -33t34 -86q0 -33 -14 -59.5t-42 -54.5l-106 -107h175v-51h-254v43l146 146q39 37 39 79q0 31 -20.5 51t-55.5 20q-29 0 -49.5 -12.5t-37.5 -35.5l-35 35q48 65 127 65z" />
    <glyph glyph-name="three.dnom" horiz-adv-x="334" 
d="M246 362q37 -29 37 -76q0 -33 -17 -56t-48 -35q34 -11 54 -34.5t20 -55.5q0 -53 -40.5 -81.5t-98.5 -28.5q-80 0 -128 51l31 36q39 -37 94 -37q37 0 61 16.5t24 47.5q0 28 -25.5 45t-62.5 17h-51v48h52q34 0 56.5 16.5t22.5 46.5q0 27 -22 43.5t-57 16.5q-55 0 -89 -41
l-33 34q46 56 124 56q59 0 96 -29z" />
    <glyph glyph-name="four.dnom" horiz-adv-x="340" 
d="M320 127v-49h-62v-78h-55v78h-183v39l137 269h60l-132 -259h118v80l15 29h40v-109h62z" />
    <glyph glyph-name="five.dnom" horiz-adv-x="350" 
d="M116 336l-2 -101h48q69 0 106 -31t37 -83q0 -57 -39 -91.5t-99 -34.5q-41 0 -76 14.5t-59 41.5l32 37q19 -20 46 -31.5t56 -11.5q39 0 61 19.5t22 52.5q0 32 -24.5 51t-73.5 19h-88l6 200h217v-51h-170z" />
    <glyph glyph-name="six.dnom" horiz-adv-x="349" 
d="M180 249q60 0 98 -36t38 -89q0 -55 -40.5 -92t-102.5 -37q-61 0 -102 36.5t-41 91.5q0 43 30 87l113 177h65l-97 -145q19 7 39 7zM111 180.5q-24 -22.5 -24 -57.5q0 -34 24 -56.5t62 -22.5t62 22.5t24 56.5q0 35 -24 57.5t-62 22.5t-62 -22.5z" />
    <glyph glyph-name="seven.dnom" horiz-adv-x="327" 
d="M131 0h-64l170 335h-207v52h271v-43z" />
    <glyph glyph-name="eight.dnom" horiz-adv-x="381" 
d="M289.5 363q39.5 -28 39.5 -77q0 -65 -70 -90q36 -11 57.5 -34t21.5 -59q0 -50 -42 -79t-105 -29q-64 0 -106 29t-42 79q0 36 21.5 59t57.5 34q-70 25 -70 90q0 49 39.5 77t99.5 28q59 0 98.5 -28zM133.5 327.5q-22.5 -16.5 -22.5 -45.5q0 -30 22.5 -47t57.5 -17t57.5 17
t22.5 47q0 29 -23 45.5t-57 16.5q-35 0 -57.5 -16.5zM127.5 156.5q-25.5 -17.5 -25.5 -47.5q0 -32 25 -49.5t64 -17.5q38 0 63 17.5t25 49.5q0 30 -25 47.5t-63 17.5t-63.5 -17.5z" />
    <glyph glyph-name="nine.dnom" horiz-adv-x="349" 
d="M168 138q-60 0 -97.5 36t-37.5 89q0 55 40 91.5t102 36.5t103 -36t41 -91q0 -42 -30 -88l-113 -176h-66l97 145q-21 -7 -39 -7zM237 206.5q24 22.5 25 57.5q0 35 -24.5 57t-62.5 22q-37 0 -61 -22.5t-24 -56.5q0 -35 24 -57.5t61 -22.5q38 0 62 22.5z" />
    <glyph glyph-name="space.frac" horiz-adv-x="53" 
 />
    <glyph glyph-name="b.ordn" horiz-adv-x="443" 
d="M322 626q37 -22 58.5 -61t21.5 -87t-21.5 -87t-58.5 -61.5t-82 -22.5q-42 0 -73 19t-50 52v-65h-52v499h54v-233q18 32 49 50.5t72 18.5q45 0 82 -22zM147.5 564q-32.5 -34 -32.5 -86t32.5 -86t82.5 -34q51 0 83.5 34t32.5 86t-32.5 86t-83.5 34q-50 0 -82.5 -34z" />
    <glyph glyph-name="c.ordn" horiz-adv-x="378" 
d="M282.5 633.5q32.5 -14.5 55.5 -41.5l-39 -34q-37 40 -89 40q-48 0 -80.5 -34t-32.5 -86t32 -86t81 -34q25 0 48.5 10.5t41.5 28.5l38 -34q-23 -27 -55.5 -41.5t-70.5 -14.5q-50 0 -89 22t-61 61t-22 88t22 87.5t61 60.5t89 22q38 0 70.5 -14.5z" />
    <glyph glyph-name="d.ordn" horiz-adv-x="443" 
d="M275 629q31 -19 49 -51v234h54v-499h-52v65q-19 -33 -50 -52t-73 -19q-45 0 -82.5 22.5t-59 61.5t-21.5 87t21.5 86.5t59 61t82.5 22.5q41 0 72 -19zM129 564q-32 -34 -32 -86t32 -86t83 -34q50 0 82.5 34t32.5 86t-32.5 86t-82.5 34q-51 0 -83 -34z" />
    <glyph glyph-name="e.ordn" horiz-adv-x="403" 
d="M317 601q44 -47 45 -122q0 -14 -1 -19h-264q4 -49 35.5 -77.5t78.5 -28.5q58 0 104 44l31 -36q-54 -55 -138 -55q-48 0 -86.5 21.5t-60 60.5t-21.5 88q0 50 21.5 89t59 60.5t84.5 21.5q68 0 112 -47zM131.5 572.5q-29.5 -28.5 -34.5 -74.5h210q-4 46 -32 74.5t-70 28.5
q-44 0 -73.5 -28.5z" />
    <glyph glyph-name="h.ordn" horiz-adv-x="425" 
d="M165.5 632q29.5 16 64.5 16q60 0 97 -35.5t37 -94.5v-205h-54v187q0 46 -24.5 72t-69.5 26q-41 0 -69 -27t-28 -72v-186h-54v499h54v-227q17 31 46.5 47z" />
    <glyph glyph-name="l.ordn" horiz-adv-x="182" 
d="M65 313v499h54v-499h-54z" />
    <glyph glyph-name="m.ordn" horiz-adv-x="670" 
d="M573 613q37 -35 37 -95v-205h-54v187q0 46 -25 72t-70 26q-41 0 -69 -27t-28 -72v-186h-54v187q0 46 -24.5 72t-69.5 26q-41 0 -69 -27t-28 -72v-186h-54v330h52v-60q17 33 46.5 49t66.5 16q43 0 75 -19t47 -53q17 36 50 54t73 18q61 0 98 -35z" />
    <glyph glyph-name="r.ordn" horiz-adv-x="295" 
d="M271 638l-9 -53q-25 11 -57 11q-39 0 -62.5 -26.5t-23.5 -71.5v-185h-54v330h52v-55q31 60 100 60q34 0 54 -10z" />
    <glyph glyph-name="s.ordn" horiz-adv-x="354" 
d="M240 593.5q-30 9.5 -60 9.5q-36 0 -56.5 -13.5t-20.5 -38.5q0 -39 71 -46l37 -5q52 -6 80 -29t28 -61q0 -48 -39 -75t-105 -27q-40 0 -76 9.5t-63 29.5l22 42q50 -36 117 -36q42 0 65.5 13.5t23.5 39.5q0 20 -17.5 31.5t-54.5 16.5l-35 3q-110 13 -110 92q0 46 35.5 72.5
t95.5 26.5q73 0 133 -34l-20 -43q-21 13 -51 22.5z" />
    <glyph glyph-name="t.ordn" horiz-adv-x="332" 
d="M152 594v-161q0 -38 18 -56.5t49 -18.5q39 0 72 26l20 -43q-45 -34 -100 -34t-84.5 31t-29.5 91v165h-73v49h73v104h55v-104h143v-49h-143z" />
    <glyph glyph-name="u.ordn" horiz-adv-x="429" 
d="M322 344.5q-42 -37.5 -108 -37.5q-65 0 -107 37.5t-42 106.5v192h54v-188q0 -47 26 -72t69 -25q44 0 70 25t26 72v188h54v-192q0 -69 -42 -106.5z" />
    <glyph glyph-name="egrave.ordn" horiz-adv-x="403" 
d="M108 797h66l76 -107h-52zM121.5 328.5q-38.5 21.5 -60 60.5t-21.5 88q0 50 21.5 89t59 60.5t84.5 21.5q68 0 112 -47t45 -122q0 -14 -1 -19h-264q4 -49 35.5 -77.5t78.5 -28.5q58 0 104 44l31 -36q-54 -55 -138 -55q-48 0 -86.5 21.5zM307 498q-4 46 -32 74.5t-70 28.5
q-44 0 -73.5 -28.5t-34.5 -74.5h210z" />
    <glyph glyph-name="zero.osf" horiz-adv-x="669" 
d="M473 494q62 -33 98.5 -94t36.5 -140q0 -80 -36.5 -141t-98.5 -94.5t-138 -33.5q-75 0 -137.5 34t-99 95t-36.5 140t36.5 140t98.5 94t138 33t138 -33zM231.5 439q-46.5 -25 -74 -71.5t-27.5 -107.5q0 -60 27.5 -107t74 -72.5t103.5 -25.5t103.5 25t73.5 72t27 108
t-27 107.5t-73.5 71.5t-103.5 25t-103.5 -25z" />
    <glyph glyph-name="one.osf" horiz-adv-x="381" 
d="M214 0v436l-180 -61v67l249 86v-528h-69z" />
    <glyph glyph-name="two.osf" horiz-adv-x="534" 
d="M124 495.5q52 31.5 128 31.5q62 0 109 -23.5t73 -64.5t26 -91q0 -62 -39.5 -111.5t-112.5 -93.5l-130 -78h312v-65h-434v56l212 132q65 39 92.5 77t27.5 79q0 50 -37.5 84t-102.5 34q-55 0 -92 -22.5t-69 -60.5l-46 42q31 43 83 74.5z" />
    <glyph glyph-name="three.osf" horiz-adv-x="542" 
d="M365.5 503q51.5 -24 80 -67.5t28.5 -98.5q0 -61 -31 -103t-85 -62q60 -19 96 -62.5t36 -103.5q0 -64 -33 -108.5t-87 -66.5t-117 -22q-70 0 -126.5 24t-95.5 66l44 46q33 -34 79 -53t98 -19q71 0 118.5 34.5t47.5 100.5q0 61 -49 97t-123 36h-93v62h92q70 0 114 34t44 97
q0 58 -45.5 93.5t-115.5 35.5q-50 0 -90.5 -22.5t-65.5 -58.5l-50 42q33 47 86.5 75t124.5 28q67 0 118.5 -24z" />
    <glyph glyph-name="four.osf" horiz-adv-x="571" 
d="M546 65v-65h-133v-182h-67v182h-321v53l241 465h73l-233 -453h240v179h67v-179h133z" />
    <glyph glyph-name="five.osf" horiz-adv-x="568" 
d="M168 453l-7 -218h102q122 0 186 -58t64 -151q0 -67 -31 -116t-85 -75t-121 -26q-148 0 -235 108l45 45q34 -42 83.5 -65t106.5 -23q77 0 121 41.5t44 104.5q0 71 -47.5 111t-150.5 40h-147l10 347h375v-65h-313z" />
    <glyph glyph-name="six.osf" horiz-adv-x="571" 
d="M291 445q68 0 123.5 -29.5t86.5 -81.5t31 -116t-32 -116t-89 -81.5t-127 -29.5t-126.5 30t-88.5 82t-32 116q0 71 49 147l209 334h84l-175 -272q42 17 87 17zM194 361q-40 -21 -63 -58t-23 -84t22.5 -84.5t63 -58t90.5 -20.5q51 0 91 20.5t63 58t23 84.5t-23 84t-63.5 58
t-90.5 21t-90 -21z" />
    <glyph glyph-name="seven.osf" horiz-adv-x="547" 
d="M191 -182h-80l318 635h-392v65h474v-54z" />
    <glyph glyph-name="eight.osf" 
d="M416.5 685.5q52.5 -23.5 83.5 -67t31 -99.5q0 -59 -30.5 -100t-82.5 -64q58 -22 94 -65t36 -104q0 -58 -33 -102.5t-89.5 -68.5t-124.5 -24q-69 0 -126 24t-90 68.5t-33 102.5q0 61 36 104t95 65q-52 23 -83 64t-31 100q0 57 31 100t84 66.5t117 23.5q63 0 115.5 -23.5z
M187.5 609q-45.5 -35 -45.5 -93q0 -61 45.5 -97t113.5 -36q67 0 112.5 36t45.5 97q0 58 -45.5 93t-112.5 35q-68 0 -113.5 -35zM175.5 286.5q-50.5 -36.5 -50.5 -96.5q0 -61 50.5 -97.5t125.5 -36.5q74 0 124.5 36.5t50.5 97.5q0 60 -50.5 96.5t-124.5 36.5
q-75 0 -125.5 -36.5z" />
    <glyph glyph-name="nine.osf" horiz-adv-x="571" 
d="M280 74q-68 0 -122.5 29.5t-85.5 81t-31 115.5t32 116t88 81.5t126 29.5t126.5 -29.5t89 -81.5t32.5 -116q0 -38 -12.5 -73t-36.5 -74l-210 -335h-84l175 273q-40 -17 -87 -17zM377.5 158q40.5 21 63 58t22.5 84t-22.5 84t-63 58t-90.5 21t-90.5 -21t-63 -58.5
t-22.5 -83.5q0 -47 22.5 -84t63 -58t90.5 -21t90.5 21z" />
    <glyph glyph-name="zero.tf" 
d="M433.5 669q58.5 -40 92.5 -121t34 -198q0 -121 -34 -201.5t-92.5 -119t-132.5 -38.5q-75 0 -134 38.5t-93 119t-34 201.5t34 201.5t93 119t134 38.5q74 0 132.5 -40zM164.5 569q-52.5 -72 -52.5 -219t52.5 -219t136.5 -72t136 72t52 219q0 96 -24.5 161.5t-67 97.5
t-96.5 32q-84 0 -136.5 -72z" />
    <glyph glyph-name="one.tf" 
d="M296 613l-208 -74v71l278 98v-642h187v-66h-457v66h200v547z" />
    <glyph glyph-name="two.tf" 
d="M283 709q69 0 119 -28t76 -76.5t26 -109.5q0 -59 -26 -107.5t-69 -92.5l-217 -229h337v-66h-440v55l268 280q36 38 55.5 76.5t19.5 82.5q0 64 -40.5 106t-111.5 42q-56 0 -94 -24.5t-67 -66.5l-49 41q78 117 213 117z" />
    <glyph glyph-name="three.tf" 
d="M398 685q52 -24 81 -67t29 -98q0 -62 -31 -104t-86 -62q61 -20 97 -63t36 -104q0 -63 -33.5 -107.5t-88 -66.5t-118.5 -22q-69 0 -126 23.5t-97 66.5l45 47q34 -34 79.5 -52.5t97.5 -18.5q71 0 119.5 34.5t48.5 99.5q0 60 -49.5 95.5t-123.5 35.5h-95v64h95
q70 0 114 33.5t44 96.5q0 57 -45.5 92.5t-116.5 35.5q-50 0 -91 -22.5t-67 -57.5l-49 43q33 46 86.5 74t124.5 28q68 0 120 -24z" />
    <glyph glyph-name="four.tf" 
d="M566 215v-65h-122v-150h-70v150h-332v53l259 497h78l-253 -485h248v199h70v-199h122z" />
    <glyph glyph-name="five.tf" 
d="M185 635l-8 -216h106q80 0 135.5 -27t83.5 -73.5t28 -104.5q0 -69 -31.5 -119.5t-85.5 -77t-122 -26.5q-146 0 -235 108l44 46q34 -42 84 -64.5t107 -22.5q77 0 121.5 42t44.5 108q0 65 -47.5 105t-147.5 40h-150l10 347h376v-65h-313z" />
    <glyph glyph-name="six.tf" 
d="M306 445q68 0 123.5 -29.5t86.5 -81t31 -115.5t-32.5 -116t-89 -82t-126.5 -30t-126.5 30t-89 82t-32.5 116q0 71 49 148l210 333h85l-175 -271q42 16 86 16zM209 361q-40 -21 -62.5 -58t-22.5 -84t22.5 -84t62.5 -58t90 -21t90 21t62.5 58t22.5 84t-22.5 84t-62.5 58
t-90 21t-90 -21z" />
    <glyph glyph-name="seven.tf" 
d="M221 0h-82l318 635h-392v65h475v-54z" />
    <glyph glyph-name="eight.tf" 
d="M422.5 686.5q55.5 -22.5 87.5 -65.5t32 -101q0 -61 -32 -102t-86 -63q61 -22 98 -64.5t37 -104.5q0 -61 -34.5 -105t-93.5 -67t-131 -23t-130.5 23t-93 67t-34.5 105q0 63 36.5 105t96.5 64q-53 22 -84.5 63t-31.5 102q0 58 32 101t87 65.5t122 22.5t122.5 -22.5z
M180 610q-48 -34 -48 -94q0 -63 47.5 -98t120.5 -35t120.5 35t47.5 98q0 60 -48 94t-120 34t-120 -34zM168 288.5q-52 -35.5 -52 -98.5q0 -64 52.5 -99t131.5 -35t131.5 35t52.5 99q0 63 -52.5 98.5t-131.5 35.5q-80 0 -132 -35.5z" />
    <glyph glyph-name="nine.tf" 
d="M293 255q-68 0 -122.5 29.5t-85.5 81.5t-31 116t32 116t88.5 81.5t126.5 29.5t126.5 -30t89 -81.5t32.5 -115.5q0 -38 -12.5 -73.5t-36.5 -74.5l-210 -334h-85l175 272q-40 -17 -87 -17zM391 340q40 21 62.5 58t22.5 84q0 46 -22.5 83t-62.5 58t-90 21t-90 -21t-62.5 -58
t-22.5 -83q0 -47 22.5 -84t62.5 -58t90 -21t90 21z" />
    <glyph glyph-name="zero.tosf" 
d="M431.5 494q59.5 -33 94 -93.5t34.5 -140.5q0 -81 -34.5 -142t-94 -94t-131.5 -33t-131.5 33.5t-94 94.5t-34.5 141t34.5 140.5t94 93.5t131.5 33t131.5 -33zM203.5 440q-43.5 -25 -69 -71.5t-25.5 -108.5t25.5 -109t69 -72t96.5 -25t96.5 24.5t69 71.5t25.5 110
q0 62 -25.5 108.5t-69 71.5t-96.5 25t-96.5 -25z" />
    <glyph glyph-name="one.tosf" 
d="M296 441l-199 -57v68l266 76v-462h181v-66h-441v66h193v375z" />
    <glyph glyph-name="two.tosf" 
d="M167 495.5q52 31.5 128 31.5q62 0 109 -23.5t73 -64.5t26 -91q0 -62 -39.5 -111.5t-112.5 -93.5l-130 -78h312v-65h-434v56l212 132q65 39 92.5 77t27.5 79q0 50 -37.5 84t-102.5 34q-55 0 -92 -22.5t-69 -60.5l-46 42q31 43 83 74.5z" />
    <glyph glyph-name="three.tosf" 
d="M402.5 503q51.5 -24 80 -67.5t28.5 -98.5q0 -61 -30.5 -103t-84.5 -62q59 -19 94.5 -62.5t35.5 -103.5q0 -64 -33 -108.5t-86.5 -66.5t-116.5 -22q-70 0 -126.5 23.5t-95.5 66.5l44 46q33 -34 78.5 -53t97.5 -19q72 0 119.5 34.5t47.5 100.5q0 61 -49.5 97t-122.5 36h-93
v62h93q69 0 112.5 34t43.5 97q0 58 -45 93.5t-115 35.5q-50 0 -90 -22.5t-67 -58.5l-49 42q32 47 86 75t125 28q67 0 118.5 -24z" />
    <glyph glyph-name="four.tosf" 
d="M571 65v-65h-133v-182h-68v182h-321v53l241 465h74l-234 -453h240v179h68v-179h133z" />
    <glyph glyph-name="five.tosf" 
d="M184 453l-7 -218h103q122 0 186 -58t64 -151q0 -67 -31.5 -116t-85.5 -75t-121 -26q-148 0 -235 108l45 45q35 -43 84.5 -65.5t105.5 -22.5q77 0 121 41.5t44 104.5q0 71 -47.5 111t-150.5 40h-147l10 347h375v-65h-313z" />
    <glyph glyph-name="six.tosf" 
d="M310 445q68 0 123 -29.5t86 -81.5t31 -116t-32 -115.5t-88.5 -81.5t-126.5 -30t-126.5 30t-89 82t-32.5 116q0 71 49 147l210 334h84l-175 -272q40 17 87 17zM212.5 361q-40.5 -21 -63.5 -58t-23 -84t23 -84.5t63 -58t91 -20.5q50 0 90.5 20.5t63 58t22.5 84.5t-22.5 84
t-63 58t-90.5 21t-90.5 -21z" />
    <glyph glyph-name="seven.tosf" 
d="M227 -182h-80l318 635h-391v65h474v-54z" />
    <glyph glyph-name="eight.tosf" 
d="M422.5 685.5q52.5 -23.5 83.5 -67t31 -99.5q0 -59 -30.5 -100t-82.5 -64q58 -22 93.5 -65t35.5 -104q0 -58 -33 -102.5t-89 -68.5t-124 -24q-69 0 -126 24t-90 68.5t-33 102.5q0 61 36 104t95 65q-52 22 -83 63.5t-31 100.5q0 57 31 100t84 66.5t117 23.5
q63 0 115.5 -23.5zM193 609q-46 -35 -46 -93q0 -61 46 -97t114 -36q67 0 112.5 36t45.5 97q0 58 -45.5 93t-112.5 35q-68 0 -114 -35zM181.5 286.5q-50.5 -36.5 -50.5 -96.5q0 -61 50.5 -97.5t125.5 -36.5q74 0 124.5 36.5t50.5 97.5q0 60 -50.5 96.5t-124.5 36.5
q-75 0 -125.5 -36.5z" />
    <glyph glyph-name="nine.tosf" 
d="M290 74q-68 0 -122.5 29.5t-85.5 81t-31 115.5t32 116t88 81.5t126 29.5t126.5 -29.5t89 -81.5t32.5 -116q0 -38 -12.5 -73t-36.5 -74l-210 -335h-83l174 273q-40 -17 -87 -17zM387.5 158q40.5 21 63.5 58t23 84t-23 84t-63.5 58t-90.5 21t-90.5 -21t-63 -58.5
t-22.5 -83.5q0 -47 22.5 -84t63 -58t90.5 -21t90.5 21z" />
    <glyph glyph-name="exclam.sc" horiz-adv-x="262" 
d="M103 176l-8 344h74l-8 -344h-58zM165.5 74.5q14.5 -14.5 14.5 -33.5t-14.5 -34t-34.5 -15q-19 0 -33.5 15t-14.5 34t14.5 33.5t33.5 14.5q20 0 34.5 -14.5z" />
    <glyph glyph-name="numbersign.sc" horiz-adv-x="594" 
d="M229 520h56l-29 -132h137l29 132h58l-30 -132h85l-11 -53h-86l-33 -149h85l-11 -52h-85l-30 -134h-57l29 134h-137l-29 -134h-57l29 134h-83l11 52h85l33 149h-85l11 53h85zM348 186l33 149h-137l-33 -149h137z" />
    <glyph glyph-name="dollar.sc" 
d="M276 4q-51 2 -102 18.5t-85 40.5l33 51q27 -19 69 -34t85 -19v172l-14 2q-77 10 -117.5 43.5t-40.5 89.5q0 63 48 102.5t124 45.5v69h53v-69q92 -6 169 -53l-30 -52q-59 40 -139 47v-170l9 -1q71 -7 120.5 -38.5t49.5 -93.5q0 -67 -50 -106t-129 -45v-72h-53v72zM276 458
q-48 -5 -77 -27.5t-29 -57.5q0 -63 106 -78v163zM411.5 88.5q30.5 21.5 30.5 59.5q0 64 -113 79v-165q52 5 82.5 26.5z" />
    <glyph glyph-name="percent.sc" horiz-adv-x="757" 
d="M284.5 488.5q39.5 -38.5 39.5 -95.5t-39.5 -95t-99.5 -38q-59 0 -98.5 38t-39.5 95t39.5 95.5t98.5 38.5q60 0 99.5 -38.5zM173 0l348 520h63l-348 -520h-63zM124 453.5q-24 -24.5 -24 -60.5q0 -37 24 -60.5t61 -23.5t61.5 23.5t24.5 60.5q0 36 -24.5 60.5t-61.5 24.5
t-61 -24.5zM671 223q40 -38 40 -95q0 -58 -40 -96.5t-100 -38.5q-59 0 -98.5 38.5t-39.5 96.5q0 56 40 94.5t98 38.5q60 0 100 -38zM510.5 188q-24.5 -24 -24.5 -60q0 -37 24.5 -61t60.5 -24q38 0 62 24t24 61q0 36 -24.5 60t-61.5 24q-36 0 -60.5 -24z" />
    <glyph glyph-name="ampersand.sc" horiz-adv-x="555" 
d="M93.5 28q-41.5 35 -41.5 94q0 48 29 84t79 70q-42 41 -60 69t-18 63q0 50 38.5 84t98.5 34q59 0 97 -33t38 -83q0 -41 -27 -71.5t-78 -65.5l120 -112l88 119l47 -31l-94 -127l130 -122h-83l-84 78q-36 -40 -75.5 -62.5t-92.5 -22.5q-70 0 -111.5 35zM272 360q21 22 21 49
t-20.5 45t-53.5 18t-54 -19t-21 -48q0 -22 13.5 -41t52.5 -55q41 29 62 51zM274.5 65q28.5 17 57.5 50l-132 124q-40 -28 -62 -54t-22 -58q0 -35 26 -57t67 -22q37 0 65.5 17z" />
    <glyph glyph-name="parenleft.sc" horiz-adv-x="325" 
d="M167.5 424q-43.5 -72 -43.5 -164t43.5 -164t118.5 -102l-20 -55q-60 21 -107.5 68t-74 112.5t-26.5 140.5t26.5 140.5t74 112.5t107.5 68l20 -56q-75 -29 -118.5 -101z" />
    <glyph glyph-name="parenright.sc" horiz-adv-x="325" 
d="M157.5 96q43.5 72 43.5 163q0 92 -43.5 164.5t-118.5 100.5l20 57q60 -21 107.5 -68.5t74 -113t26.5 -140.5q0 -74 -26.5 -139.5t-74 -112.5t-107.5 -68l-20 55q75 30 118.5 102z" />
    <glyph glyph-name="asterisk.sc" horiz-adv-x="362" 
d="M157 520h49l-1 -97l93 31l16 -46l-95 -29l59 -77l-39 -28l-57 79l-58 -79l-39 28l58 77l-94 29l15 46l94 -31z" />
    <glyph glyph-name="slash.sc" horiz-adv-x="414" 
d="M39 0l265 520h72l-265 -520h-72z" />
    <glyph glyph-name="zero.sc" horiz-adv-x="573" 
d="M400.5 493q51.5 -32 81.5 -92t30 -141t-30 -141.5t-81.5 -93t-114.5 -32.5q-62 0 -113.5 32.5t-81.5 93t-30 141.5t30 141t81.5 92t113.5 32q63 0 114.5 -32zM206 440q-36 -24 -57 -70t-21 -110t21 -110t57 -70.5t80 -24.5q45 0 81.5 24.5t57.5 70.5t21 110t-21 110
t-57.5 70t-81.5 24q-44 0 -80 -24z" />
    <glyph glyph-name="one.sc" horiz-adv-x="362" 
d="M200 0v435l-169 -69v64l233 95v-525h-64z" />
    <glyph glyph-name="two.sc" horiz-adv-x="439" 
d="M105.5 500q41.5 25 102.5 25q79 0 124.5 -44.5t45.5 -114.5q0 -44 -20 -80t-55 -71l-154 -155h247v-60h-341v51l202 201q55 53 55 111q0 44 -29.5 72.5t-79.5 28.5q-41 0 -69 -17.5t-51 -47.5l-44 39q25 37 66.5 62z" />
    <glyph glyph-name="three.sc" horiz-adv-x="446" 
d="M332 486q51 -39 51 -101q0 -45 -24 -76t-66 -47q47 -15 74 -46.5t27 -75.5q0 -70 -56 -108.5t-135 -38.5q-53 0 -97.5 18t-74.5 49l38 43q25 -24 59.5 -38t72.5 -14q54 0 90.5 24t36.5 68q0 42 -37 66.5t-92 24.5h-72v57h72q52 0 84.5 23t32.5 66q0 39 -33.5 63.5
t-86.5 24.5q-38 0 -69 -16.5t-52 -41.5l-42 41q27 34 69.5 54t96.5 20q82 0 133 -39z" />
    <glyph glyph-name="four.sc" horiz-adv-x="453" 
d="M429 167v-60h-89v-107h-65v107h-251v47l192 365h72l-186 -352h173v146h65v-146h89z" />
    <glyph glyph-name="five.sc" horiz-adv-x="460" 
d="M147 460l-6 -147h73q94 0 143 -42t49 -113q0 -75 -52 -120t-134 -45q-110 0 -181 77l38 46q26 -29 63.5 -46t79.5 -17q56 0 87.5 27.5t31.5 71.5q0 49 -34.5 76.5t-108.5 27.5h-114l7 264h292v-60h-234z" />
    <glyph glyph-name="six.sc" horiz-adv-x="456" 
d="M234 333q53 0 94.5 -22t65 -60.5t23.5 -85.5q0 -49 -24.5 -88t-68 -61.5t-97.5 -22.5t-97.5 22.5t-68 61.5t-24.5 87q0 54 38 114l156 242h78l-131 -197q28 10 56 10zM139 245q-35 -32 -35 -81t35 -80.5t88 -31.5t88.5 31.5t35.5 80.5t-35.5 81t-88.5 32t-88 -32z" />
    <glyph glyph-name="seven.sc" horiz-adv-x="439" 
d="M165 0h-76l237 460h-289v60h365v-51z" />
    <glyph glyph-name="eight.sc" horiz-adv-x="499" 
d="M381.5 487q53.5 -38 53.5 -103q0 -43 -22.5 -73.5t-61.5 -47.5q44 -17 70 -48t26 -77q0 -67 -56.5 -106t-141.5 -39q-84 0 -140.5 39t-56.5 106q0 46 26 77t70 48q-38 17 -60.5 47t-22.5 74q0 65 53 103t131 38q79 0 132.5 -38zM166 445q-33 -23 -33 -65q0 -43 33 -67
t83 -24q51 0 84.5 24t33.5 67q0 42 -33.5 65t-84.5 23q-50 0 -83 -23zM158 212q-37 -25 -37 -68q0 -44 36.5 -68.5t91.5 -24.5q56 0 92.5 24t36.5 69q0 43 -37 68t-92 25q-54 0 -91 -25z" />
    <glyph glyph-name="nine.sc" horiz-adv-x="457" 
d="M222 187q-53 0 -94.5 22t-65 60.5t-23.5 85.5q0 48 25 87t68.5 61.5t97.5 22.5t97.5 -22t68.5 -61t25 -87q0 -56 -39 -115l-156 -241h-77l130 196q-27 -9 -57 -9zM318 274.5q35 31.5 35 80.5t-35 81t-88 32t-88 -32t-35 -81t35 -80.5t88 -31.5t88 31.5z" />
    <glyph glyph-name="question.sc" horiz-adv-x="381" 
d="M113 290h24q64 0 100 23.5t36 64.5q0 40 -36 63t-97 23q-6 0 -51 -3l-4 62q34 4 62 4q88 0 141.5 -39.5t53.5 -104.5q0 -61 -44.5 -99.5t-124.5 -46.5l-2 -64h-58v117zM176.5 74.5q14.5 -14.5 14.5 -33.5t-14.5 -34t-33.5 -15t-34 15t-15 34t14.5 33.5t34.5 14.5
q19 0 33.5 -14.5z" />
    <glyph glyph-name="at.sc" horiz-adv-x="745" 
d="M553 162q31 0 50 30.5t19 84.5q0 70 -32.5 123.5t-89.5 83t-127 29.5t-127 -32t-89.5 -89t-32.5 -128q0 -72 32.5 -129.5t89 -90t127.5 -32.5q85 0 149 48l30 -38q-76 -57 -179 -57q-86 0 -155 39t-108.5 107.5t-39.5 152.5q0 83 39.5 151t108.5 107t155 39t155 -36
t108 -100.5t39 -147.5q0 -70 -34 -115.5t-90 -45.5q-35 0 -56 15t-29 42q-38 -53 -105 -53q-60 0 -99 41t-39 103t38.5 103.5t98.5 41.5q33 0 58.5 -14.5t41.5 -39.5v48h50v-172q0 -69 43 -69zM301.5 333q-26.5 -28 -26.5 -69t26.5 -69t66.5 -28t66.5 27.5t26.5 69.5
q0 41 -26.5 69t-66.5 28t-66.5 -28z" />
    <glyph glyph-name="bracketleft.sc" horiz-adv-x="314" 
d="M97 -49v618h177v-57h-113v-505h113v-56h-177z" />
    <glyph glyph-name="backslash.sc" horiz-adv-x="414" 
d="M111 520l265 -520h-73l-264 520h72z" />
    <glyph glyph-name="bracketright.sc" horiz-adv-x="314" 
d="M217 569v-618h-178v57h114v505h-114v56h178z" />
    <glyph glyph-name="a.sc" horiz-adv-x="568" 
d="M482 0l-61 140h-275l-60 -140h-70l229 520h79l228 -520h-70zM395 200l-111 256l-113 -256h224z" />
    <glyph glyph-name="b.sc" horiz-adv-x="586" 
d="M464 485.5q53 -34.5 53 -104.5q0 -42 -23.5 -71.5t-63.5 -43.5q44 -13 70.5 -45t26.5 -77q0 -72 -52 -108t-148 -36h-230v520h221q93 0 146 -34.5zM164 293h152q63 0 97.5 19.5t34.5 64.5q0 84 -133 84h-151v-168zM164 58h160q65 0 100 21t35 68t-35 67.5t-100 20.5h-160
v-177z" />
    <glyph glyph-name="c.sc" horiz-adv-x="596" 
d="M454 496q58 -30 90 -83l-56 -34q-25 40 -68 62t-94 22q-56 0 -101 -25.5t-71 -72t-26 -105.5q0 -60 26.5 -106.5t71.5 -71.5t100 -25q52 0 94.5 22t67.5 62l55 -39q-34 -51 -91 -80t-126 -29q-76 0 -137 34t-96 95t-35 138t35 137.5t96 94.5t137 34q70 0 128 -30z" />
    <glyph glyph-name="d.sc" horiz-adv-x="634" 
d="M446 487.5q62 -32.5 96 -91.5t34 -137q0 -77 -34 -136t-96 -91t-143 -32h-206v520h206q81 0 143 -32.5zM164 62h139q95 0 149.5 54t54.5 143q0 90 -54.5 144t-149.5 54h-139v-395z" />
    <glyph glyph-name="e.sc" horiz-adv-x="564" 
d="M97 0v520h388v-61h-321v-167h310v-61h-310v-170h323v-61h-390z" />
    <glyph glyph-name="f.sc" horiz-adv-x="539" 
d="M164 228v-228h-67v520h384v-61h-317v-170h304v-61h-304z" />
    <glyph glyph-name="g.sc" horiz-adv-x="635" 
d="M439.5 503.5q51.5 -22.5 87.5 -62.5l-48 -47q-28 33 -67.5 51t-85.5 18q-56 0 -101.5 -25.5t-71.5 -72t-26 -105.5q0 -60 26.5 -106.5t71.5 -72t100 -25.5q78 0 127 44.5t56 122.5h-166v55h234q1 -7 1 -21q0 -77 -32.5 -137t-90 -93.5t-128.5 -33.5q-72 0 -133.5 33
t-98 94t-36.5 140q0 77 35 137.5t97 94.5t138 34q60 0 111.5 -22.5z" />
    <glyph glyph-name="h.sc" horiz-adv-x="651" 
d="M488 292v228h66v-520h-66v231h-324v-231h-67v520h67v-228h324z" />
    <glyph glyph-name="i.sc" horiz-adv-x="261" 
d="M97 0v520h67v-520h-67z" />
    <glyph glyph-name="j.sc" horiz-adv-x="476" 
d="M329.5 45q-54.5 -52 -141.5 -52q-56 0 -98 19t-69 47l40 49q47 -51 125 -51q60 0 95.5 35.5t35.5 103.5v324h67v-330q0 -93 -54.5 -145z" />
    <glyph glyph-name="k.sc" horiz-adv-x="569" 
d="M238 292l219 228h84l-253 -256l269 -264h-87l-233 231h-73v-231h-67v520h67v-228h74z" />
    <glyph glyph-name="l.sc" horiz-adv-x="500" 
d="M97 0v520h67v-458h317v-62h-384z" />
    <glyph glyph-name="m.sc" horiz-adv-x="771" 
d="M607 0v437l-187 -378h-68l-188 376v-435h-67v520h96l193 -386l191 386h96v-520h-66z" />
    <glyph glyph-name="n.sc" horiz-adv-x="659" 
d="M499 0l-335 408v-408h-67v520h62l336 -410v410h66v-520h-62z" />
    <glyph glyph-name="o.sc" horiz-adv-x="654" 
d="M464.5 492q61.5 -34 96.5 -95t35 -137q0 -77 -35 -138t-96.5 -95t-137.5 -34t-137.5 34t-96.5 95t-35 138q0 76 35 137t96.5 95t137.5 34t137.5 -34zM225.5 437.5q-45.5 -25.5 -71.5 -72t-26 -105.5t26 -105.5t71.5 -72t101.5 -25.5t102 25.5t72 72t26 105.5t-26 105.5
t-72 72t-102 25.5t-101.5 -25.5z" />
    <glyph glyph-name="p.sc" horiz-adv-x="559" 
d="M164 0h-67v520h214q93 0 145.5 -42.5t52.5 -117.5t-52.5 -117.5t-145.5 -42.5h-147v-200zM164 261h145q62 0 97 25.5t35 73.5t-35 73.5t-97 25.5h-145v-198z" />
    <glyph glyph-name="q.sc" horiz-adv-x="654" 
d="M464.5 492q61.5 -34 96.5 -95t35 -137q0 -92 -54 -162l76 -98h-78l-42 53q-73 -60 -171 -60q-76 0 -137.5 34t-96.5 95t-35 138q0 76 35 137t96.5 95t137.5 34t137.5 -34zM527 260q0 59 -26 105.5t-72 72t-102 25.5t-101.5 -25.5t-71.5 -72t-26 -105.5t26 -105.5
t71.5 -72t101.5 -25.5q77 0 131 46l-123 154h78l85 -107q29 50 29 110z" />
    <glyph glyph-name="r.sc" horiz-adv-x="562" 
d="M456 480q51 -40 51 -112q0 -67 -50 -106t-135 -41h-9l197 -221h-83l-192 220h-71v-220h-67v520h216q92 0 143 -40zM164 277h148q61 0 94 23t33 68q0 44 -33.5 67t-93.5 23h-148v-181z" />
    <glyph glyph-name="s.sc" horiz-adv-x="558" 
d="M376.5 450.5q-44.5 13.5 -93.5 13.5q-61 0 -99.5 -23t-38.5 -64q0 -35 32 -55.5t99 -27.5l54 -6q170 -22 170 -136q0 -78 -63 -118.5t-158 -40.5q-60 0 -121 18.5t-99 46.5l33 53q34 -23 85 -40t102 -17q67 0 109 23t42 68q0 36 -33 55t-101 27l-54 6q-81 9 -124.5 44
t-43.5 94q0 71 59 113t150 42q113 0 203 -57l-31 -54q-34 22 -78.5 35.5z" />
    <glyph glyph-name="t.sc" horiz-adv-x="489" 
d="M278 457v-457h-67v457h-192v63h450v-63h-191z" />
    <glyph glyph-name="u.sc" horiz-adv-x="623" 
d="M474 48.5q-62 -55.5 -162 -55.5t-162.5 55.5t-62.5 156.5v315h68v-311q0 -75 43 -113.5t114 -38.5t114.5 39t43.5 113v311h66v-315q0 -101 -62 -156.5z" />
    <glyph glyph-name="v.sc" horiz-adv-x="558" 
d="M239 0l-223 520h71l193 -456l194 456h68l-223 -520h-80z" />
    <glyph glyph-name="w.sc" horiz-adv-x="868" 
d="M586 0l-152 431l-152 -431h-79l-178 520h70l149 -448l155 448h72l155 -448l149 448h68l-177 -520h-80z" />
    <glyph glyph-name="x.sc" horiz-adv-x="546" 
d="M521 0h-78l-171 219l-170 -219h-77l205 265l-196 255h78l161 -208l162 208h77l-197 -255z" />
    <glyph glyph-name="y.sc" horiz-adv-x="513" 
d="M291 0h-67v214l-219 306h78l175 -242l174 242h76l-217 -307v-213z" />
    <glyph glyph-name="z.sc" horiz-adv-x="549" 
d="M147 61h343v-61h-431v52l341 407h-336v61h425v-52z" />
    <glyph glyph-name="braceleft.sc" horiz-adv-x="350" 
d="M225.5 492q-20.5 -21 -18.5 -64l3 -50q6 -94 -76 -118q82 -24 76 -118l-3 -49q-2 -43 18.5 -64.5t58.5 -21.5h27v-56h-32q-67 0 -102.5 38t-31.5 107l2 50q3 44 -20 65.5t-66 21.5v54q43 0 66 22t20 66l-2 49q-4 69 31.5 107t102.5 38h32v-56h-27q-38 0 -58.5 -21z" />
    <glyph glyph-name="braceright.sc" horiz-adv-x="350" 
d="M39 569h32q67 0 103 -38t32 -107l-3 -49q-2 -44 21 -66t65 -22v-54q-42 0 -65 -21.5t-21 -65.5l3 -50q4 -69 -32 -107t-103 -38h-32v56h27q38 0 59 21.5t18 64.5l-3 49q-6 94 77 118q-83 24 -77 118l3 50q3 43 -18 64t-59 21h-27v56z" />
    <glyph glyph-name="exclamdown.sc" horiz-adv-x="262" 
d="M97.5 445.5q-14.5 14.5 -14.5 33.5q0 20 14.5 34t33.5 14q20 0 34.5 -14.5t14.5 -33.5t-14.5 -33.5t-34.5 -14.5q-19 0 -33.5 14.5zM160 344l9 -344h-74l8 344h57z" />
    <glyph glyph-name="cent.sc" 
d="M346 441q38 -3 70.5 -18.5t55.5 -41.5l-42 -37q-37 36 -84 40v-249q51 6 85 40l41 -37q-23 -26 -55.5 -42t-70.5 -19v-77h-53v79q-72 11 -116 61t-44 119q0 71 44 120.5t116 59.5v80h53v-78zM221.5 180q27.5 -33 71.5 -42v244q-44 -11 -71.5 -44t-27.5 -79t27.5 -79z" />
    <glyph glyph-name="sterling.sc" 
d="M102 0v60h68v174h-68v52h68v53q0 89 51.5 137.5t129.5 48.5q44 0 81 -15.5t61 -46.5l-46 -42q-34 43 -96 43q-52 0 -84.5 -32.5t-32.5 -95.5v-50h200v-52h-200v-174h261v-60h-393z" />
    <glyph glyph-name="currency.sc" 
d="M201 391q42 33 99 33q55 0 100 -32l56 56l36 -36l-56 -55q33 -42 33 -98q0 -55 -33 -97l56 -55l-36 -35l-56 55q-45 -32 -100 -32t-100 32l-55 -55l-36 35l56 55q-33 44 -33 97q0 55 33 97l-57 56l36 36zM384.5 177.5q34.5 33.5 34.5 81.5q0 49 -34.5 82.5t-84.5 33.5
t-84 -33.5t-34 -82.5q0 -48 34.5 -81.5t83.5 -33.5q50 0 84.5 33.5z" />
    <glyph glyph-name="yen.sc" 
d="M334 119v-119h-65v119h-149v44h149v70h-149v45h126l-175 242h75l156 -215l154 215h74l-174 -242h129v-45h-151v-70h151v-44h-151z" />
    <glyph glyph-name="section.sc" horiz-adv-x="518" 
d="M146.5 -96q-52.5 16 -87.5 41l31 50q31 -21 74 -36t92 -15q58 0 95 19t37 56q0 30 -31.5 45.5t-88.5 22.5l-48 5q-70 8 -110 37t-40 80q0 30 15.5 54t44.5 40q-53 30 -53 89q0 61 53 97t134 36q103 0 179 -50l-27 -50q-30 19 -69 31.5t-82 12.5q-54 0 -89 -19t-35 -53
q0 -56 120 -69l46 -5q68 -6 110 -35t42 -78q0 -64 -60 -97q53 -33 53 -87q0 -68 -56 -103t-141 -35q-56 0 -108.5 16zM380.5 161q14.5 17 14.5 40q0 56 -120 68q-32 3 -51 5.5t-37 6.5q-25 -9 -39 -26t-14 -39q0 -30 30.5 -46.5t89.5 -22.5q59 -5 87 -12q25 9 39.5 26z" />
    <glyph glyph-name="copyright.sc" horiz-adv-x="738" 
d="M519 517.5q69 -39.5 109 -107.5t40 -148t-40.5 -148t-109 -108t-149.5 -40q-82 0 -150.5 40t-108.5 108t-40 148t40 148t108.5 107.5t150.5 39.5q81 0 150 -39.5zM246.5 472.5q-56.5 -32.5 -89.5 -88.5t-33 -122t33 -122t89.5 -88.5t122.5 -32.5t122 32.5t89 88.5t33 122
t-33 122t-89 88.5t-122 32.5t-122.5 -32.5zM425 357q-22 12 -49 12q-44 0 -73.5 -30t-29.5 -77q0 -49 29.5 -77.5t73.5 -28.5q27 0 49 12t37 34l41 -29q-20 -30 -53 -47.5t-74 -17.5q-67 0 -111.5 43t-44.5 111t44.5 111.5t111.5 43.5q41 0 75.5 -19t53.5 -51l-44 -25
q-14 23 -36 35z" />
    <glyph glyph-name="ordfeminine.sc" horiz-adv-x="429" 
d="M348 131l-40 102h-188l-40 -102h-57l160 389h65l158 -389h-58zM288 282l-74 186l-74 -186h148z" />
    <glyph glyph-name="degree.sc" horiz-adv-x="315" 
d="M90 285.5q-31 17.5 -49 47.5t-18 65t18 65t49 47.5t67 17.5t67 -17.5t49 -47.5t18 -65t-18 -65t-49 -47.5t-67 -17.5t-67 17.5zM216 340.5q24 23.5 24 57.5t-24 57t-59 23q-34 0 -58.5 -23.5t-24.5 -56.5q0 -34 24.5 -57.5t58.5 -23.5q35 0 59 23.5z" />
    <glyph glyph-name="ordmasculine.sc" horiz-adv-x="490" 
d="M347.5 498.5q45.5 -25.5 71.5 -71t26 -102.5q0 -58 -26 -103.5t-71.5 -71t-102.5 -25.5t-102.5 25.5t-71.5 71t-26 103.5q0 57 26 102.5t71.5 71t102.5 25.5t102.5 -25.5zM142 431q-41 -41 -41 -106q0 -64 41.5 -105.5t102.5 -41.5q62 0 103 41t41 106t-41 106t-103 41
t-103 -41z" />
    <glyph glyph-name="questiondown.sc" horiz-adv-x="381" 
d="M204.5 445.5q-14.5 14.5 -14.5 33.5t14.5 33.5t34.5 14.5t34 -14t14 -34q0 -19 -14 -33.5t-34 -14.5t-34.5 14.5zM268 229h-24q-64 0 -100 -23t-36 -65q0 -39 36.5 -62.5t97.5 -23.5q22 0 50 4l4 -62q-21 -5 -61 -5q-88 0 -142 39.5t-54 104.5q0 62 44.5 100.5
t124.5 46.5l3 64h57v-118z" />
    <glyph glyph-name="germandbls.sc" horiz-adv-x="1115" 
d="M376.5 450.5q-44.5 13.5 -93.5 13.5q-61 0 -99.5 -23t-38.5 -64q0 -35 32 -55.5t99 -27.5l54 -6q170 -22 170 -136q0 -78 -63 -118.5t-158 -40.5q-60 0 -121 18.5t-99 46.5l33 53q34 -23 85 -40t102 -17q67 0 109 23t42 68q0 36 -33 55t-101 27l-54 6q-81 9 -124.5 44
t-43.5 94q0 71 59 113t150 42q113 0 203 -57l-31 -54q-34 22 -78.5 35.5zM933 450.5q-44 13.5 -93 13.5q-62 0 -100 -23t-38 -64q0 -35 32 -55.5t99 -27.5l53 -6q171 -22 171 -136q0 -78 -63 -118.5t-158 -40.5q-60 0 -121 18.5t-100 46.5l34 53q33 -23 84 -40t103 -17
q67 0 109 23t42 68q0 36 -33 55t-101 27l-55 6q-81 9 -124 44t-43 94q0 71 59 113t150 42q113 0 203 -57l-31 -54q-35 22 -79 35.5z" />
    <glyph glyph-name="agrave.sc" horiz-adv-x="568" 
d="M234 741l108 -151h-66l-126 151h84zM482 0l-61 140h-275l-60 -140h-70l229 520h79l228 -520h-70zM395 200l-111 256l-113 -256h224z" />
    <glyph glyph-name="aacute.sc" horiz-adv-x="568" 
d="M330 741h84l-127 -151h-65zM482 0l-61 140h-275l-60 -140h-70l229 520h79l228 -520h-70zM395 200l-111 256l-113 -256h224z" />
    <glyph glyph-name="acircumflex.sc" horiz-adv-x="568" 
d="M285 691l-95 -100h-71l122 144h87l121 -144h-70zM482 0l-61 140h-275l-60 -140h-70l229 520h79l228 -520h-70zM395 200l-111 256l-113 -256h224z" />
    <glyph glyph-name="atilde.sc" horiz-adv-x="568" 
d="M162.5 702q25.5 14 59.5 14q24 0 41 -6t40 -18q15 -9 26.5 -13.5t25.5 -4.5q20 0 37 10t35 30l36 -42q-23 -29 -48.5 -42.5t-59.5 -13.5q-24 0 -41 6t-38 18q-16 10 -28 14.5t-26 4.5q-20 0 -35.5 -10t-35.5 -31l-36 41q22 29 47.5 43zM482 0l-61 140h-275l-60 -140h-70
l229 520h79l228 -520h-70zM395 200l-111 256l-113 -256h224z" />
    <glyph glyph-name="adieresis.sc" horiz-adv-x="568" 
d="M214.5 696q13.5 -14 13.5 -34q0 -19 -13.5 -33t-33.5 -14t-33 13.5t-13 33.5t13 34t33 14t33.5 -14zM420.5 696q13.5 -14 13.5 -34t-13.5 -33.5t-33.5 -13.5q-19 0 -33 14t-14 33q0 20 13.5 34t33.5 14t33.5 -14zM482 0l-61 140h-275l-60 -140h-70l229 520h79l228 -520
h-70zM395 200l-111 256l-113 -256h224z" />
    <glyph glyph-name="aring.sc" horiz-adv-x="568" 
d="M206 612.5q-33 32.5 -33 78.5q0 44 33 76.5t79 32.5q45 0 77.5 -32.5t32.5 -76.5q0 -46 -32.5 -78.5t-77.5 -32.5q-46 0 -79 32.5zM331.5 642.5q19.5 19.5 19.5 48.5q0 27 -19.5 46.5t-46.5 19.5q-28 0 -47.5 -19.5t-19.5 -46.5q0 -29 19.5 -48.5t47.5 -19.5
q27 0 46.5 19.5zM482 0l-61 140h-275l-60 -140h-70l229 520h79l228 -520h-70zM395 200l-111 256l-113 -256h224z" />
    <glyph glyph-name="ae.sc" horiz-adv-x="897" 
d="M430 0v133h-237l-100 -133h-80l395 520h410v-61h-321v-167h310v-61h-310v-170h323v-61h-390zM430 447l-192 -254h192v254z" />
    <glyph glyph-name="ccedilla.sc" horiz-adv-x="596" 
d="M454 496q58 -30 90 -83l-56 -34q-25 40 -68 62t-94 22q-56 0 -101 -25.5t-71 -72t-26 -105.5q0 -60 26.5 -106.5t71.5 -71.5t100 -25q52 0 94.5 22t67.5 62l55 -39q-32 -48 -83 -76t-114 -32l-49 -156h-68l51 158q-65 10 -115.5 46.5t-78.5 92.5t-28 125q0 77 35 137.5
t96 94.5t137 34q70 0 128 -30z" />
    <glyph glyph-name="egrave.sc" horiz-adv-x="564" 
d="M240 741l108 -152h-66l-126 152h84zM97 0v520h388v-61h-321v-167h310v-61h-310v-170h323v-61h-390z" />
    <glyph glyph-name="eacute.sc" horiz-adv-x="564" 
d="M336 741h84l-127 -152h-65zM97 0v520h388v-61h-321v-167h310v-61h-310v-170h323v-61h-390z" />
    <glyph glyph-name="ecircumflex.sc" horiz-adv-x="564" 
d="M291 691l-95 -100h-71l122 144h87l122 -144h-71zM97 0v520h388v-61h-321v-167h310v-61h-310v-170h323v-61h-390z" />
    <glyph glyph-name="edieresis.sc" horiz-adv-x="564" 
d="M220.5 695.5q13.5 -13.5 13.5 -33.5q0 -19 -13.5 -33t-33.5 -14t-33 13.5t-13 33.5t13 33.5t33 13.5t33.5 -13.5zM426.5 695.5q13.5 -13.5 13.5 -33.5t-13.5 -33.5t-33.5 -13.5q-19 0 -33 14t-14 33q0 20 13.5 33.5t33.5 13.5t33.5 -13.5zM97 0v520h388v-61h-321v-167
h310v-61h-310v-170h323v-61h-390z" />
    <glyph glyph-name="igrave.sc" horiz-adv-x="261" 
d="M80 741l109 -151h-67l-126 151h84zM97 0v520h67v-520h-67z" />
    <glyph glyph-name="iacute.sc" horiz-adv-x="261" 
d="M177 741h84l-127 -151h-66zM97 0v520h67v-520h-67z" />
    <glyph glyph-name="icircumflex.sc" horiz-adv-x="261" 
d="M131 691l-94 -100h-72l122 144h87l122 -144h-70zM97 0v520h67v-520h-67z" />
    <glyph glyph-name="idieresis.sc" horiz-adv-x="261" 
d="M60.5 696q13.5 -14 13.5 -34t-13.5 -33.5t-33.5 -13.5q-19 0 -33 14t-14 33q0 20 13.5 34t33.5 14t33.5 -14zM267.5 696q13.5 -14 13.5 -34q0 -19 -13.5 -33t-33.5 -14t-33.5 13.5t-13.5 33.5t13.5 34t33.5 14t33.5 -14zM97 0v520h67v-520h-67z" />
    <glyph glyph-name="eth.sc" horiz-adv-x="707" 
d="M519 487.5q62 -32.5 96 -91.5t34 -137q0 -77 -34 -136t-96 -91t-143 -32h-206v235h-111v59h111v226h206q81 0 143 -32.5zM237 235v-173h139q95 0 149.5 54t54.5 143q0 90 -54.5 144t-149.5 54h-139v-163h158v-59h-158z" />
    <glyph glyph-name="ntilde.sc" horiz-adv-x="659" 
d="M205.5 702q25.5 14 59.5 14q24 0 41 -6t40 -18q15 -9 26.5 -13.5t25.5 -4.5q20 0 37 10t35 30l35 -42q-22 -29 -47.5 -42.5t-59.5 -13.5q-25 0 -41.5 6.5t-38.5 18.5q-19 10 -29 14t-24 4q-20 0 -36 -10t-35 -31l-36 41q22 29 47.5 43zM499 0l-335 408v-408h-67v520h62
l336 -410v410h66v-520h-62z" />
    <glyph glyph-name="ograve.sc" horiz-adv-x="654" 
d="M276 741l109 -151h-67l-126 151h84zM464.5 492q61.5 -34 96.5 -95t35 -137q0 -77 -35 -138t-96.5 -95t-137.5 -34t-137.5 34t-96.5 95t-35 138q0 76 35 137t96.5 95t137.5 34t137.5 -34zM225.5 437.5q-45.5 -25.5 -71.5 -72t-26 -105.5t26 -105.5t71.5 -72t101.5 -25.5
t102 25.5t72 72t26 105.5t-26 105.5t-72 72t-102 25.5t-101.5 -25.5z" />
    <glyph glyph-name="oacute.sc" horiz-adv-x="654" 
d="M373 741h84l-127 -151h-66zM464.5 492q61.5 -34 96.5 -95t35 -137q0 -77 -35 -138t-96.5 -95t-137.5 -34t-137.5 34t-96.5 95t-35 138q0 76 35 137t96.5 95t137.5 34t137.5 -34zM225.5 437.5q-45.5 -25.5 -71.5 -72t-26 -105.5t26 -105.5t71.5 -72t101.5 -25.5t102 25.5
t72 72t26 105.5t-26 105.5t-72 72t-102 25.5t-101.5 -25.5z" />
    <glyph glyph-name="ocircumflex.sc" horiz-adv-x="654" 
d="M327 691l-94 -100h-71l121 144h87l122 -144h-70zM464.5 492q61.5 -34 96.5 -95t35 -137q0 -77 -35 -138t-96.5 -95t-137.5 -34t-137.5 34t-96.5 95t-35 138q0 76 35 137t96.5 95t137.5 34t137.5 -34zM225.5 437.5q-45.5 -25.5 -71.5 -72t-26 -105.5t26 -105.5t71.5 -72
t101.5 -25.5t102 25.5t72 72t26 105.5t-26 105.5t-72 72t-102 25.5t-101.5 -25.5z" />
    <glyph glyph-name="otilde.sc" horiz-adv-x="654" 
d="M205.5 702q25.5 14 59.5 14q24 0 41 -6t40 -18q15 -9 26.5 -13.5t25.5 -4.5q20 0 36.5 9.5t35.5 30.5l35 -42q-22 -29 -47.5 -42.5t-59.5 -13.5q-25 0 -41.5 6.5t-38.5 18.5q-19 10 -29 14t-24 4q-20 0 -36.5 -10t-35.5 -31l-35 41q22 29 47.5 43zM464.5 492
q61.5 -34 96.5 -95t35 -137q0 -77 -35 -138t-96.5 -95t-137.5 -34t-137.5 34t-96.5 95t-35 138q0 76 35 137t96.5 95t137.5 34t137.5 -34zM225.5 437.5q-45.5 -25.5 -71.5 -72t-26 -105.5t26 -105.5t71.5 -72t101.5 -25.5t102 25.5t72 72t26 105.5t-26 105.5t-72 72
t-102 25.5t-101.5 -25.5z" />
    <glyph glyph-name="odieresis.sc" horiz-adv-x="654" 
d="M257 696q14 -14 14 -34t-14 -33.5t-34 -13.5q-19 0 -32.5 13.5t-13.5 33.5t13.5 34t32.5 14q20 0 34 -14zM463.5 696q13.5 -14 13.5 -34q0 -19 -13.5 -33t-33.5 -14t-33.5 13.5t-13.5 33.5t13.5 34t33.5 14t33.5 -14zM464.5 492q61.5 -34 96.5 -95t35 -137
q0 -77 -35 -138t-96.5 -95t-137.5 -34t-137.5 34t-96.5 95t-35 138q0 76 35 137t96.5 95t137.5 34t137.5 -34zM225.5 437.5q-45.5 -25.5 -71.5 -72t-26 -105.5t26 -105.5t71.5 -72t101.5 -25.5t102 25.5t72 72t26 105.5t-26 105.5t-72 72t-102 25.5t-101.5 -25.5z" />
    <glyph glyph-name="oslash.sc" horiz-adv-x="654" 
d="M419 511q44 -15 78 -42l59 60l40 -41l-59 -58q59 -70 59 -170q0 -77 -35 -138t-96.5 -95t-137.5 -34q-96 0 -170 56l-58 -58l-40 41l57 57q-58 73 -58 171q0 76 35 137t96.5 95t137.5 34q48 0 92 -15zM225.5 437.5q-45.5 -25.5 -71.5 -72t-26 -105.5q0 -71 37 -122
l285 285q-54 40 -123 40q-56 0 -101.5 -25.5zM490 382l-286 -285q53 -40 123 -40q56 0 102 25.5t72 72t26 105.5q0 69 -37 122z" />
    <glyph glyph-name="ugrave.sc" horiz-adv-x="623" 
d="M261 741l108 -151h-66l-126 151h84zM474 48.5q-62 -55.5 -162 -55.5t-162.5 55.5t-62.5 156.5v315h68v-311q0 -75 43 -113.5t114 -38.5t114.5 39t43.5 113v311h66v-315q0 -101 -62 -156.5z" />
    <glyph glyph-name="uacute.sc" horiz-adv-x="623" 
d="M357 741h84l-126 -151h-66zM474 48.5q-62 -55.5 -162 -55.5t-162.5 55.5t-62.5 156.5v315h68v-311q0 -75 43 -113.5t114 -38.5t114.5 39t43.5 113v311h66v-315q0 -101 -62 -156.5z" />
    <glyph glyph-name="ucircumflex.sc" horiz-adv-x="623" 
d="M312 691l-95 -100h-70l122 144h87l121 -144h-71zM474 48.5q-62 -55.5 -162 -55.5t-162.5 55.5t-62.5 156.5v315h68v-311q0 -75 43 -113.5t114 -38.5t114.5 39t43.5 113v311h66v-315q0 -101 -62 -156.5z" />
    <glyph glyph-name="udieresis.sc" horiz-adv-x="623" 
d="M242.5 696q13.5 -14 13.5 -34q0 -19 -13.5 -33t-33.5 -14t-33.5 13.5t-13.5 33.5t13.5 34t33.5 14t33.5 -14zM448 696q14 -14 14 -34t-14 -33.5t-34 -13.5q-19 0 -32.5 13.5t-13.5 33.5t13.5 34t32.5 14q20 0 34 -14zM474 48.5q-62 -55.5 -162 -55.5t-162.5 55.5
t-62.5 156.5v315h68v-311q0 -75 43 -113.5t114 -38.5t114.5 39t43.5 113v311h66v-315q0 -101 -62 -156.5z" />
    <glyph glyph-name="yacute.sc" horiz-adv-x="513" 
d="M303 741h84l-126 -151h-66zM291 0h-67v214l-219 306h78l175 -242l174 242h76l-217 -307v-213z" />
    <glyph glyph-name="thorn.sc" horiz-adv-x="555" 
d="M307 425q94 0 146 -42.5t52 -117.5t-52.5 -117.5t-145.5 -42.5h-143v-105h-67v520h67v-95h143zM164 167h141q63 0 97.5 25t34.5 73q0 47 -35 72.5t-97 25.5h-141v-196z" />
    <glyph glyph-name="ydieresis.sc" horiz-adv-x="513" 
d="M188.5 696q13.5 -14 13.5 -34q0 -19 -13.5 -33t-33.5 -14t-33.5 13.5t-13.5 33.5t13.5 34t33.5 14t33.5 -14zM394 696q14 -14 14 -34t-14 -33.5t-34 -13.5q-19 0 -32.5 13.5t-13.5 33.5t13.5 34t32.5 14q20 0 34 -14zM291 0h-67v214l-219 306h78l175 -242l174 242h76
l-217 -307v-213z" />
    <glyph glyph-name="amacron.sc" horiz-adv-x="568" 
d="M433 690v-55h-297v55h297zM482 0l-61 140h-275l-60 -140h-70l229 520h79l228 -520h-70zM395 200l-111 256l-113 -256h224z" />
    <glyph glyph-name="abreve.sc" horiz-adv-x="568" 
d="M285 646q41 0 70 25t42 73l55 -16q-19 -67 -62 -102.5t-105 -35.5q-63 0 -106 35.5t-61 102.5l53 16q29 -98 114 -98zM482 0l-61 140h-275l-60 -140h-70l229 520h79l228 -520h-70zM395 200l-111 256l-113 -256h224z" />
    <glyph glyph-name="aogonek.sc" horiz-adv-x="568" 
d="M462 -207q-45 0 -74 23.5t-29 62.5t29.5 68.5t89.5 59.5l-57 133h-275l-60 -140h-70l229 521h79l228 -521h-17q-58 -27 -86 -53t-28 -54q0 -20 13 -31.5t35 -11.5q30 0 55 28l35 -43q-40 -42 -97 -42zM395 200l-111 257l-113 -257h224z" />
    <glyph glyph-name="cacute.sc" horiz-adv-x="596" 
d="M369 741h84l-127 -151h-66zM454 496q58 -30 90 -83l-56 -34q-25 40 -68 62t-94 22q-56 0 -101 -25.5t-71 -72t-26 -105.5q0 -60 26.5 -106.5t71.5 -71.5t100 -25q52 0 94.5 22t67.5 62l55 -39q-34 -51 -91 -80t-126 -29q-76 0 -137 34t-96 95t-35 138t35 137.5t96 94.5
t137 34q70 0 128 -30z" />
    <glyph glyph-name="ccircumflex.sc" horiz-adv-x="596" 
d="M323 691l-94 -100h-71l121 144h87l122 -144h-70zM454 496q58 -30 90 -83l-56 -34q-25 40 -68 62t-94 22q-56 0 -101 -25.5t-71 -72t-26 -105.5q0 -60 26.5 -106.5t71.5 -71.5t100 -25q52 0 94.5 22t67.5 62l55 -39q-34 -51 -91 -80t-126 -29q-76 0 -137 34t-96 95
t-35 138t35 137.5t96 94.5t137 34q70 0 128 -30z" />
    <glyph glyph-name="cdotaccent.sc" horiz-adv-x="596" 
d="M356.5 695.5q13.5 -13.5 13.5 -33.5t-13.5 -33.5t-33.5 -13.5q-19 0 -33 14t-14 33q0 20 13.5 33.5t33.5 13.5t33.5 -13.5zM454 496q58 -30 90 -83l-56 -34q-25 40 -68 62t-94 22q-56 0 -101 -25.5t-71 -72t-26 -105.5q0 -60 26.5 -106.5t71.5 -71.5t100 -25
q52 0 94.5 22t67.5 62l55 -39q-34 -51 -91 -80t-126 -29q-76 0 -137 34t-96 95t-35 138t35 137.5t96 94.5t137 34q70 0 128 -30z" />
    <glyph glyph-name="ccaron.sc" horiz-adv-x="596" 
d="M323 636l95 98h70l-122 -143h-87l-121 143h71zM454 496q58 -30 90 -83l-56 -34q-25 40 -68 62t-94 22q-56 0 -101 -25.5t-71 -72t-26 -105.5q0 -60 26.5 -106.5t71.5 -71.5t100 -25q52 0 94.5 22t67.5 62l55 -39q-34 -51 -91 -80t-126 -29q-76 0 -137 34t-96 95t-35 138
t35 137.5t96 94.5t137 34q70 0 128 -30z" />
    <glyph glyph-name="dcaron.sc" horiz-adv-x="634" 
d="M307 636l94 98h72l-122 -143h-87l-122 143h70zM446 487.5q62 -32.5 96 -91.5t34 -137q0 -77 -34 -136t-96 -91t-143 -32h-206v520h206q81 0 143 -32.5zM164 62h139q95 0 149.5 54t54.5 143q0 90 -54.5 144t-149.5 54h-139v-395z" />
    <glyph glyph-name="dcroat.sc" horiz-adv-x="707" 
d="M519 487.5q62 -32.5 96 -91.5t34 -137q0 -77 -34 -136t-96 -91t-143 -32h-206v235h-111v59h111v226h206q81 0 143 -32.5zM237 235v-173h139q95 0 149.5 54t54.5 143q0 90 -54.5 144t-149.5 54h-139v-163h158v-59h-158z" />
    <glyph glyph-name="emacron.sc" horiz-adv-x="564" 
d="M439 690v-55h-297v55h297zM97 0v520h388v-61h-321v-167h310v-61h-310v-170h323v-61h-390z" />
    <glyph glyph-name="ebreve.sc" horiz-adv-x="564" 
d="M291 646q85 0 112 98l55 -16q-19 -67 -62 -103t-105 -36t-105.5 36t-61.5 103l53 16q28 -98 114 -98zM97 0v520h388v-61h-321v-167h310v-61h-310v-170h323v-61h-390z" />
    <glyph glyph-name="edotaccent.sc" horiz-adv-x="564" 
d="M324.5 695.5q13.5 -13.5 13.5 -33.5q0 -19 -13.5 -33t-33.5 -14t-33.5 13.5t-13.5 33.5t13.5 33.5t33.5 13.5t33.5 -13.5zM97 0v520h388v-61h-321v-167h310v-61h-310v-170h323v-61h-390z" />
    <glyph glyph-name="eogonek.sc" horiz-adv-x="564" 
d="M398 0q-39 -22 -58 -44.5t-19 -49.5q0 -25 18 -40.5t48 -15.5q41 0 74 30l35 -41q-22 -22 -51.5 -34t-62.5 -12q-56 0 -90.5 28t-34.5 72q0 34 18.5 59.5t55.5 47.5h-234v520h388v-61h-321v-167h310v-61h-310v-170h323v-61h-89z" />
    <glyph glyph-name="ecaron.sc" horiz-adv-x="564" 
d="M291 635l94 99h71l-122 -144h-87l-122 144h71zM97 0v520h388v-61h-321v-167h310v-61h-310v-170h323v-61h-390z" />
    <glyph glyph-name="gcircumflex.sc" horiz-adv-x="635" 
d="M323 691l-95 -100h-71l122 144h87l122 -144h-71zM439.5 503.5q51.5 -22.5 87.5 -62.5l-48 -47q-28 33 -67.5 51t-85.5 18q-56 0 -101.5 -25.5t-71.5 -72t-26 -105.5q0 -60 26.5 -106.5t71.5 -72t100 -25.5q78 0 127 44.5t56 122.5h-166v55h234q1 -7 1 -21
q0 -77 -32.5 -137t-90 -93.5t-128.5 -33.5q-72 0 -133.5 33t-98 94t-36.5 140q0 77 35 137.5t97 94.5t138 34q60 0 111.5 -22.5z" />
    <glyph glyph-name="gbreve.sc" horiz-adv-x="635" 
d="M323 646q41 0 70 25t42 73l55 -16q-19 -67 -62 -102.5t-105 -35.5q-63 0 -106 35.5t-61 102.5l53 16q29 -98 114 -98zM439.5 503.5q51.5 -22.5 87.5 -62.5l-48 -47q-28 33 -67.5 51t-85.5 18q-56 0 -101.5 -25.5t-71.5 -72t-26 -105.5q0 -60 26.5 -106.5t71.5 -72
t100 -25.5q78 0 127 44.5t56 122.5h-166v55h234q1 -7 1 -21q0 -77 -32.5 -137t-90 -93.5t-128.5 -33.5q-72 0 -133.5 33t-98 94t-36.5 140q0 77 35 137.5t97 94.5t138 34q60 0 111.5 -22.5z" />
    <glyph glyph-name="gdotaccent.sc" horiz-adv-x="635" 
d="M356.5 695.5q13.5 -13.5 13.5 -33.5q0 -19 -13.5 -33t-33.5 -14t-33.5 13.5t-13.5 33.5t13.5 33.5t33.5 13.5t33.5 -13.5zM439.5 503.5q51.5 -22.5 87.5 -62.5l-48 -47q-28 33 -67.5 51t-85.5 18q-56 0 -101.5 -25.5t-71.5 -72t-26 -105.5q0 -60 26.5 -106.5t71.5 -72
t100 -25.5q78 0 127 44.5t56 122.5h-166v55h234q1 -7 1 -21q0 -77 -32.5 -137t-90 -93.5t-128.5 -33.5q-72 0 -133.5 33t-98 94t-36.5 140q0 77 35 137.5t97 94.5t138 34q60 0 111.5 -22.5z" />
    <glyph glyph-name="gcommaaccent.sc" horiz-adv-x="635" 
d="M439.5 503.5q51.5 -22.5 87.5 -62.5l-48 -47q-28 33 -67.5 51t-85.5 18q-56 0 -101.5 -25.5t-71.5 -72t-26 -105.5q0 -60 26.5 -106.5t71.5 -72t100 -25.5q78 0 127 44.5t56 122.5h-166v55h234q1 -7 1 -21q0 -77 -32.5 -137t-90 -93.5t-128.5 -33.5q-72 0 -133.5 33
t-98 94t-36.5 140q0 77 35 137.5t97 94.5t138 34q60 0 111.5 -22.5zM327 -218h-58l22 174h72z" />
    <glyph glyph-name="hcircumflex.sc" horiz-adv-x="651" 
d="M326 691l-94 -100h-72l122 144h87l122 -144h-71zM488 292v228h66v-520h-66v231h-324v-231h-67v520h67v-228h324z" />
    <glyph glyph-name="hbar.sc" horiz-adv-x="653" 
d="M555 379v-379h-66v231h-324v-231h-67v379h-64v52h64v89h67v-89h324v89h66v-89h64v-52h-64zM489 379h-324v-87h324v87z" />
    <glyph glyph-name="itilde.sc" horiz-adv-x="261" 
d="M8.5 702q25.5 14 59.5 14q25 0 42.5 -6t38.5 -18q16 -9 27.5 -13.5t25.5 -4.5q20 0 36.5 9.5t34.5 30.5l36 -42q-22 -29 -47.5 -42.5t-59.5 -13.5q-24 0 -40.5 6t-39.5 18q-16 10 -28 14.5t-26 4.5q-19 0 -35.5 -10t-36.5 -31l-35 41q22 29 47.5 43zM97 0v520h67v-520
h-67z" />
    <glyph glyph-name="imacron.sc" horiz-adv-x="261" 
d="M280 690v-55h-299v55h299zM97 0v520h67v-520h-67z" />
    <glyph glyph-name="ibreve.sc" horiz-adv-x="261" 
d="M60 671q29 -25 71 -25t71 25t42 73l54 -16q-18 -67 -61.5 -102.5t-105.5 -35.5t-105.5 35.5t-61.5 102.5l54 16q13 -48 42 -73zM97 0v520h67v-520h-67z" />
    <glyph glyph-name="iogonek.sc" horiz-adv-x="261" 
d="M132 -207q-46 0 -75 23.5t-29 62.5q0 33 20.5 62t59.5 59h-11v520h67v-520q-73 -59 -73 -107q0 -20 12.5 -31.5t34.5 -11.5q30 0 55 28l35 -43q-40 -42 -96 -42z" />
    <glyph glyph-name="Idotaccent.sc" horiz-adv-x="261" 
d="M164.5 695.5q13.5 -13.5 13.5 -33.5q0 -19 -13.5 -33t-33.5 -14q-19 0 -33 14t-14 33q0 20 13.5 33.5t33.5 13.5t33.5 -13.5zM97 0v520h67v-520h-67z" />
    <glyph glyph-name="ij.sc" horiz-adv-x="737" 
d="M97 0v520h67v-520h-67zM591 45q-54 -52 -141 -52q-56 0 -98.5 19t-69.5 47l40 49q47 -51 125 -51q60 0 95.5 35.5t35.5 103.5v324h67v-330q0 -93 -54 -145z" />
    <glyph glyph-name="jcircumflex.sc" horiz-adv-x="476" 
d="M350 691l-95 -100h-70l122 144h87l122 -144h-72zM329.5 45q-54.5 -52 -141.5 -52q-56 0 -98 19t-69 47l40 49q47 -51 125 -51q60 0 95.5 35.5t35.5 103.5v324h67v-330q0 -93 -54.5 -145z" />
    <glyph glyph-name="kcommaaccent.sc" horiz-adv-x="569" 
d="M238 292l219 228h84l-253 -256l269 -264h-87l-233 231h-73v-231h-67v520h67v-228h74zM298 -218h-58l22 174h72z" />
    <glyph glyph-name="kgreenlandic.sc" horiz-adv-x="569" 
d="M238 292l219 228h84l-253 -256l269 -264h-87l-233 231h-73v-231h-67v520h67v-228h74z" />
    <glyph glyph-name="lacute.sc" horiz-adv-x="500" 
d="M177 741h84l-127 -151h-66zM97 0v520h67v-458h317v-62h-384z" />
    <glyph glyph-name="lcommaaccent.sc" horiz-adv-x="500" 
d="M97 0v520h67v-458h317v-62h-384zM298 -218h-59l22 174h73z" />
    <glyph glyph-name="lcaron.sc" horiz-adv-x="500" 
d="M97 0v520h67v-458h317v-62h-384zM268 520h68l-17 -198h-56z" />
    <glyph glyph-name="ldot.sc" horiz-adv-x="500" 
d="M97 0v520h67v-458h317v-62h-384zM406.5 293.5q13.5 -13.5 13.5 -33.5q0 -19 -13.5 -33t-33.5 -14q-19 0 -32.5 13.5t-13.5 33.5t13 33.5t33 13.5t33.5 -13.5z" />
    <glyph glyph-name="lslash.sc" horiz-adv-x="545" 
d="M142 0v187l-83 -46v66l83 46v267h67v-231l188 103v-66l-188 -103v-161h317v-62h-384z" />
    <glyph glyph-name="nacute.sc" horiz-adv-x="659" 
d="M373 741h84l-127 -151h-65zM499 0l-335 408v-408h-67v520h62l336 -410v410h66v-520h-62z" />
    <glyph glyph-name="ncommaaccent.sc" horiz-adv-x="659" 
d="M499 0l-335 408v-408h-67v520h62l336 -410v410h66v-520h-62zM339 -218h-58l22 174h72z" />
    <glyph glyph-name="ncaron.sc" horiz-adv-x="659" 
d="M328 636l94 98h70l-121 -143h-87l-122 143h71zM499 0l-335 408v-408h-67v520h62l336 -410v410h66v-520h-62z" />
    <glyph glyph-name="napostrophe.sc" horiz-adv-x="812" 
d="M125 471h-57l31 249h78zM653 0l-335 408v-408h-66v520h62l334 -410v410h67v-520h-62z" />
    <glyph glyph-name="eng.sc" horiz-adv-x="659" 
d="M527 -117.5q-34 -38.5 -96 -38.5q-60 0 -104 27l24 56q32 -20 71 -20q36 0 54.5 22t18.5 63v13l-331 404v-409h-67v521h62l336 -411v410h66v-532q0 -67 -34 -105.5z" />
    <glyph glyph-name="omacron.sc" horiz-adv-x="654" 
d="M476 690v-55h-298v55h298zM464.5 492q61.5 -34 96.5 -95t35 -137q0 -77 -35 -138t-96.5 -95t-137.5 -34t-137.5 34t-96.5 95t-35 138q0 76 35 137t96.5 95t137.5 34t137.5 -34zM225.5 437.5q-45.5 -25.5 -71.5 -72t-26 -105.5t26 -105.5t71.5 -72t101.5 -25.5t102 25.5
t72 72t26 105.5t-26 105.5t-72 72t-102 25.5t-101.5 -25.5z" />
    <glyph glyph-name="obreve.sc" horiz-adv-x="654" 
d="M257 670.5q29 -24.5 70 -24.5q42 0 71 25t42 73l54 -16q-18 -67 -61.5 -102.5t-105.5 -35.5t-105 35.5t-62 102.5l54 16q14 -49 43 -73.5zM464.5 492q61.5 -34 96.5 -95t35 -137q0 -77 -35 -138t-96.5 -95t-137.5 -34t-137.5 34t-96.5 95t-35 138q0 76 35 137t96.5 95
t137.5 34t137.5 -34zM225.5 437.5q-45.5 -25.5 -71.5 -72t-26 -105.5t26 -105.5t71.5 -72t101.5 -25.5t102 25.5t72 72t26 105.5t-26 105.5t-72 72t-102 25.5t-101.5 -25.5z" />
    <glyph glyph-name="ohungarumlaut.sc" horiz-adv-x="654" 
d="M304 741h75l-112 -151h-68zM484 741h77l-121 -151h-68zM464.5 492q61.5 -34 96.5 -95t35 -137q0 -77 -35 -138t-96.5 -95t-137.5 -34t-137.5 34t-96.5 95t-35 138q0 76 35 137t96.5 95t137.5 34t137.5 -34zM225.5 437.5q-45.5 -25.5 -71.5 -72t-26 -105.5t26 -105.5
t71.5 -72t101.5 -25.5t102 25.5t72 72t26 105.5t-26 105.5t-72 72t-102 25.5t-101.5 -25.5z" />
    <glyph glyph-name="oe.sc" horiz-adv-x="901" 
d="M337 0q-83 0 -146 32t-98 91t-35 136q0 78 35 137t98 91.5t146 32.5h484v-61h-321v-167h310v-61h-310v-170h323v-61h-486zM183.5 116.5q55.5 -53.5 153.5 -53.5h96v394h-96q-98 0 -153.5 -54t-55.5 -144q0 -89 55.5 -142.5z" />
    <glyph glyph-name="racute.sc" horiz-adv-x="562" 
d="M331 741h84l-126 -152h-67zM456 480q51 -40 51 -112q0 -66 -50 -105.5t-134 -41.5h-10l197 -221h-83l-192 220h-71v-220h-67v520h216q92 0 143 -40zM164 277h148q61 0 94 23t33 68q0 44 -33.5 67t-93.5 23h-148v-181z" />
    <glyph glyph-name="rcommaaccent.sc" horiz-adv-x="562" 
d="M97 520h216q92 0 143 -40t51 -112q0 -66 -50 -105.5t-134 -41.5h-10l197 -221h-83l-192 220h-71v-220h-67v520zM312 277q61 0 94 23t33 68q0 44 -33.5 67t-93.5 23h-148v-181h148zM261 -44h73l-36 -174h-58z" />
    <glyph glyph-name="rcaron.sc" horiz-adv-x="562" 
d="M191 734l94 -99l95 99h71l-122 -144h-87l-122 144h71zM97 520h216q92 0 143 -40t51 -112q0 -66 -50 -105.5t-134 -41.5h-10l197 -221h-83l-192 220h-71v-220h-67v520zM312 277q61 0 94 23t33 68q0 44 -33.5 67t-93.5 23h-148v-181h148z" />
    <glyph glyph-name="sacute.sc" horiz-adv-x="558" 
d="M330 741h84l-126 -152h-66zM376.5 450.5q-44.5 13.5 -93.5 13.5q-61 0 -99.5 -23t-38.5 -64q0 -35 32 -55.5t99 -27.5l54 -6q170 -22 170 -136q0 -78 -63 -118.5t-158 -40.5q-60 0 -121 18.5t-99 46.5l33 53q34 -23 85 -40t102 -17q67 0 109 23t42 68q0 36 -33 55
t-101 27l-54 6q-81 9 -124.5 44t-43.5 94q0 71 59 113t150 42q113 0 203 -57l-31 -54q-34 22 -78.5 35.5z" />
    <glyph glyph-name="scircumflex.sc" horiz-adv-x="558" 
d="M285 691l-95 -100h-70l122 144h87l121 -144h-71zM376.5 450.5q-44.5 13.5 -93.5 13.5q-61 0 -99.5 -23t-38.5 -64q0 -35 32 -55.5t99 -27.5l54 -6q170 -22 170 -136q0 -78 -63 -118.5t-158 -40.5q-60 0 -121 18.5t-99 46.5l33 53q34 -23 85 -40t102 -17q67 0 109 23
t42 68q0 36 -33 55t-101 27l-54 6q-81 9 -124.5 44t-43.5 94q0 71 59 113t150 42q113 0 203 -57l-31 -54q-34 22 -78.5 35.5z" />
    <glyph glyph-name="scedilla.sc" horiz-adv-x="558" 
d="M376.5 450.5q-44.5 13.5 -93.5 13.5q-61 0 -99.5 -23t-38.5 -64q0 -35 32 -55.5t99 -27.5l54 -6q170 -22 170 -136q0 -69 -50.5 -108.5t-131.5 -48.5l-49 -157h-68l51 157q-54 3 -106.5 20.5t-86.5 42.5l33 53q34 -23 85 -40t102 -17q67 0 109 23t42 68q0 36 -33 55
t-101 27l-54 6q-81 9 -124.5 44t-43.5 94q0 71 59 113t150 42q113 0 203 -57l-31 -54q-34 22 -78.5 35.5z" />
    <glyph glyph-name="scaron.sc" horiz-adv-x="558" 
d="M285 635l94 99h71l-121 -144h-87l-122 144h70zM376.5 450.5q-44.5 13.5 -93.5 13.5q-61 0 -99.5 -23t-38.5 -64q0 -35 32 -55.5t99 -27.5l54 -6q170 -22 170 -136q0 -78 -63 -118.5t-158 -40.5q-60 0 -121 18.5t-99 46.5l33 53q34 -23 85 -40t102 -17q67 0 109 23t42 68
q0 36 -33 55t-101 27l-54 6q-81 9 -124.5 44t-43.5 94q0 71 59 113t150 42q113 0 203 -57l-31 -54q-34 22 -78.5 35.5z" />
    <glyph glyph-name="uni021B.sc" horiz-adv-x="489" 
d="M278 457v-457h-1l-51 -162h-69l55 162h-1v457h-192v63h450v-63h-191z" />
    <glyph glyph-name="tcaron.sc" horiz-adv-x="489" 
d="M244 636l95 98h71l-122 -143h-87l-122 143h71zM278 457v-457h-67v457h-192v63h450v-63h-191z" />
    <glyph glyph-name="tbar.sc" horiz-adv-x="489" 
d="M278 234v-234h-67v234h-135v59h135v164h-192v63h450v-63h-191v-164h135v-59h-135z" />
    <glyph glyph-name="utilde.sc" horiz-adv-x="623" 
d="M189.5 702q25.5 14 60.5 14q24 0 41.5 -6t38.5 -18q18 -9 29 -13.5t24 -4.5q20 0 36.5 9.5t35.5 30.5l35 -42q-22 -29 -47.5 -42.5t-59.5 -13.5q-25 0 -41.5 6.5t-38.5 18.5q-19 10 -29 14t-24 4q-20 0 -36 -10t-36 -31l-35 41q21 29 46.5 43zM474 48.5
q-62 -55.5 -162 -55.5t-162.5 55.5t-62.5 156.5v315h68v-311q0 -75 43 -113.5t114 -38.5t114.5 39t43.5 113v311h66v-315q0 -101 -62 -156.5z" />
    <glyph glyph-name="umacron.sc" horiz-adv-x="623" 
d="M461 690v-55h-298v55h298zM474 48.5q-62 -55.5 -162 -55.5t-162.5 55.5t-62.5 156.5v315h68v-311q0 -75 43 -113.5t114 -38.5t114.5 39t43.5 113v311h66v-315q0 -101 -62 -156.5z" />
    <glyph glyph-name="ubreve.sc" horiz-adv-x="623" 
d="M241 670.5q29 -24.5 71 -24.5q41 0 70 24.5t43 73.5l54 -16q-19 -67 -62 -102.5t-105 -35.5q-63 0 -106 35.5t-61 102.5l54 16q13 -49 42 -73.5zM474 48.5q-62 -55.5 -162 -55.5t-162.5 55.5t-62.5 156.5v315h68v-311q0 -75 43 -113.5t114 -38.5t114.5 39t43.5 113v311
h66v-315q0 -101 -62 -156.5z" />
    <glyph glyph-name="uring.sc" horiz-adv-x="623" 
d="M233.5 612.5q-32.5 32.5 -32.5 78.5q0 44 32.5 76.5t78.5 32.5t78.5 -32.5t32.5 -76.5q0 -46 -32.5 -78.5t-78.5 -32.5t-78.5 32.5zM358.5 642.5q19.5 19.5 19.5 48.5q0 27 -19.5 46.5t-46.5 19.5q-28 0 -47.5 -19.5t-19.5 -46.5q0 -29 19.5 -48.5t47.5 -19.5
q27 0 46.5 19.5zM474 48.5q-62 -55.5 -162 -55.5t-162.5 55.5t-62.5 156.5v315h68v-311q0 -75 43 -113.5t114 -38.5t114.5 39t43.5 113v311h66v-315q0 -101 -62 -156.5z" />
    <glyph glyph-name="uhungarumlaut.sc" horiz-adv-x="623" 
d="M289 741h75l-112 -151h-69zM469 741h78l-122 -151h-67zM474 48.5q-62 -55.5 -162 -55.5t-162.5 55.5t-62.5 156.5v315h68v-311q0 -75 43 -113.5t114 -38.5t114.5 39t43.5 113v311h66v-315q0 -101 -62 -156.5z" />
    <glyph glyph-name="uogonek.sc" horiz-adv-x="623" 
d="M456 -195q-30 -12 -63 -12q-55 0 -89.5 28t-34.5 72q0 60 62 101q-112 -5 -178 51t-66 160v315h68v-311q0 -75 43 -113.5t114 -38.5t114.5 39t43.5 113v311h66v-315q0 -64 -26 -110t-73 -72q-104 -54 -104 -117q0 -25 18 -40.5t48 -15.5q41 0 74 30l35 -41
q-22 -22 -52 -34z" />
    <glyph glyph-name="wcircumflex.sc" horiz-adv-x="868" 
d="M435 691l-94 -100h-71l121 144h87l122 -144h-70zM586 0l-152 431l-152 -431h-79l-178 520h70l149 -448l155 448h72l155 -448l149 448h68l-177 -520h-80z" />
    <glyph glyph-name="ycircumflex.sc" horiz-adv-x="513" 
d="M258 691l-95 -100h-70l122 144h86l122 -144h-71zM291 0h-67v214l-219 306h78l175 -242l174 242h76l-217 -307v-213z" />
    <glyph glyph-name="zacute.sc" horiz-adv-x="549" 
d="M322 741h84l-127 -151h-66zM147 61h343v-61h-431v52l341 407h-336v61h425v-52z" />
    <glyph glyph-name="zdotaccent.sc" horiz-adv-x="549" 
d="M309.5 695.5q13.5 -13.5 13.5 -33.5t-13.5 -33.5t-33.5 -13.5q-19 0 -33 14t-14 33q0 20 13.5 33.5t33.5 13.5t33.5 -13.5zM147 61h343v-61h-431v52l341 407h-336v61h425v-52z" />
    <glyph glyph-name="zcaron.sc" horiz-adv-x="549" 
d="M276 636l95 98h70l-122 -143h-87l-121 143h71zM147 61h343v-61h-431v52l341 407h-336v61h425v-52z" />
    <glyph glyph-name="longs.sc" horiz-adv-x="558" 
d="M376.5 450.5q-44.5 13.5 -93.5 13.5q-61 0 -99.5 -23t-38.5 -64q0 -35 32 -55.5t99 -27.5l54 -6q170 -22 170 -136q0 -78 -63 -118.5t-158 -40.5q-60 0 -121 18.5t-99 46.5l33 53q34 -23 85 -40t102 -17q67 0 109 23t42 68q0 36 -33 55t-101 27l-54 6q-81 9 -124.5 44
t-43.5 94q0 71 59 113t150 42q113 0 203 -57l-31 -54q-34 22 -78.5 35.5z" />
    <glyph glyph-name="florin.sc" 
d="M329 243l-12 -125q-15 -125 -116 -125q-51 0 -93 29l24 46q31 -18 63 -18q55 0 61 72l12 121h-99v52h104l11 107q13 123 115 123q53 0 94 -27l-25 -46q-34 18 -63 18q-53 0 -61 -72l-10 -103h111v-52h-116z" />
    <glyph glyph-name="gcaron.sc" horiz-adv-x="635" 
d="M323 636l94 98h71l-122 -143h-87l-122 143h71zM439.5 503.5q51.5 -22.5 87.5 -62.5l-48 -47q-28 33 -67.5 51t-85.5 18q-56 0 -101.5 -25.5t-71.5 -72t-26 -105.5q0 -60 26.5 -106.5t71.5 -72t100 -25.5q78 0 127 44.5t56 122.5h-166v55h234q1 -7 1 -21q0 -77 -32.5 -137
t-90 -93.5t-128.5 -33.5q-72 0 -133.5 33t-98 94t-36.5 140q0 77 35 137.5t97 94.5t138 34q60 0 111.5 -22.5z" />
    <glyph glyph-name="aringacute.sc" horiz-adv-x="568" 
d="M331 879h84l-126 -151h-67zM232 492q-26 14 -42.5 39.5t-16.5 56.5q0 46 33 78.5t79 32.5q45 0 77.5 -32.5t32.5 -78.5q0 -31 -16 -56.5t-43 -39.5l216 -492h-70l-61 140h-275l-60 -140h-70zM243 545q18 -17 42 -17q25 0 42 18t17 43q0 26 -17 43t-41 17q-26 0 -43.5 -18
t-17.5 -43q0 -26 18 -43zM395 200l-111 257l-113 -257h224z" />
    <glyph glyph-name="aeacute.sc" horiz-adv-x="897" 
d="M638 741h84l-127 -151h-66zM430 0v133h-237l-100 -133h-80l395 520h410v-61h-321v-167h310v-61h-310v-170h323v-61h-390zM430 447l-192 -254h192v254z" />
    <glyph glyph-name="oslashacute.sc" horiz-adv-x="654" 
d="M373 741h84l-127 -151h-66zM419 511q44 -15 78 -42l59 60l40 -41l-59 -58q59 -70 59 -170q0 -77 -35 -138t-96.5 -95t-137.5 -34q-96 0 -170 56l-58 -58l-40 41l57 57q-58 73 -58 171q0 76 35 137t96.5 95t137.5 34q48 0 92 -15zM225.5 437.5q-45.5 -25.5 -71.5 -72
t-26 -105.5q0 -71 37 -122l285 285q-54 40 -123 40q-56 0 -101.5 -25.5zM490 382l-286 -285q53 -40 123 -40q56 0 102 25.5t72 72t26 105.5q0 69 -37 122z" />
    <glyph glyph-name="scommaaccent.sc" horiz-adv-x="558" 
d="M376.5 450.5q-44.5 13.5 -93.5 13.5q-61 0 -99.5 -23t-38.5 -64q0 -35 32 -55.5t99 -27.5l54 -6q170 -22 170 -136q0 -78 -63 -118.5t-158 -40.5q-60 0 -121 18.5t-99 46.5l33 53q34 -23 85 -40t102 -17q67 0 109 23t42 68q0 36 -33 55t-101 27l-54 6q-81 9 -124.5 44
t-43.5 94q0 71 59 113t150 42q113 0 203 -57l-31 -54q-34 22 -78.5 35.5zM296 -218h-59l22 174h72z" />
    <glyph glyph-name="gravecomb.sc" horiz-adv-x="1" 
d="M-378 741l108 -151h-65l-127 151h84z" />
    <glyph glyph-name="acutecomb.sc" horiz-adv-x="1" 
d="M-282 741h84l-126 -151h-66z" />
    <glyph glyph-name="tildecomb.sc" horiz-adv-x="1" 
d="M-449.5 702q25.5 14 60.5 14q24 0 41 -6t40 -18q15 -9 26.5 -13.5t25.5 -4.5q20 0 36.5 9.5t35.5 30.5l36 -42q-23 -29 -48.5 -42.5t-59.5 -13.5q-25 0 -41.5 6.5t-38.5 18.5q-18 10 -28.5 14t-24.5 4q-20 0 -36.5 -10t-35.5 -31l-35 41q21 29 46.5 43z" />
    <glyph glyph-name="dotbelowcomb.sc" horiz-adv-x="1" 
d="M-293.5 -98.5q13.5 -13.5 13.5 -33.5t-14 -33.5t-33 -13.5q-20 0 -33 13.5t-13 33.5t13 33.5t33 13.5t33.5 -13.5z" />
    <glyph glyph-name="wgrave.sc" horiz-adv-x="868" 
d="M384 741l109 -151h-67l-126 151h84zM586 0l-152 431l-152 -431h-79l-178 520h70l149 -448l155 448h72l155 -448l149 448h68l-177 -520h-80z" />
    <glyph glyph-name="wacute.sc" horiz-adv-x="868" 
d="M481 741h84l-127 -151h-66zM586 0l-152 431l-152 -431h-79l-178 520h70l149 -448l155 448h72l155 -448l149 448h68l-177 -520h-80z" />
    <glyph glyph-name="wdieresis.sc" horiz-adv-x="868" 
d="M364.5 696q13.5 -14 13.5 -34t-13.5 -33.5t-33.5 -13.5q-19 0 -32.5 13.5t-13.5 33.5t13.5 34t32.5 14q20 0 33.5 -14zM571.5 696q13.5 -14 13.5 -34q0 -19 -13.5 -33t-33.5 -14t-33.5 13.5t-13.5 33.5t13.5 34t33.5 14t33.5 -14zM586 0l-152 431l-152 -431h-79l-178 520
h70l149 -448l155 448h72l155 -448l149 448h68l-177 -520h-80z" />
    <glyph glyph-name="ygrave.sc" horiz-adv-x="513" 
d="M207 741l108 -151h-66l-126 151h84zM291 0h-67v214l-219 306h78l175 -242l174 242h76l-217 -307v-213z" />
    <glyph glyph-name="quoteleft.sc" horiz-adv-x="196" 
d="M97 519h52l-29 -229h-70z" />
    <glyph glyph-name="quoteright.sc" horiz-adv-x="196" 
d="M100 290h-53l29 230h71z" />
    <glyph glyph-name="quotesinglbase.sc" horiz-adv-x="196" 
d="M100 -82h-53l29 230h71z" />
    <glyph glyph-name="quotedblleft.sc" horiz-adv-x="342" 
d="M97 519h52l-29 -229h-70zM242 519h53l-29 -229h-70z" />
    <glyph glyph-name="quotedblright.sc" horiz-adv-x="342" 
d="M100 290h-53l29 230h71zM245 290h-52l29 230h71z" />
    <glyph glyph-name="quotedblbase.sc" horiz-adv-x="342" 
d="M100 -82h-53l29 230h71zM245 -82h-52l29 230h71z" />
    <glyph glyph-name="dagger.sc" horiz-adv-x="299" 
d="M126 396h-77v47h77v77h48v-77h76v-47h-76v-155h-48v155z" />
    <glyph glyph-name="daggerdbl.sc" horiz-adv-x="299" 
d="M126 305h-77v43h77v63h-77v44h77v65h48v-65h76v-44h-76v-63h76v-43h-76v-64h-48v64z" />
    <glyph glyph-name="perthousand.sc" horiz-adv-x="1076" 
d="M284.5 488.5q39.5 -38.5 39.5 -95.5t-39.5 -95t-99.5 -38q-59 0 -98.5 38t-39.5 95t39.5 95.5t98.5 38.5q60 0 99.5 -38.5zM173 0l348 520h63l-348 -520h-63zM124 453.5q-24 -24.5 -24 -60.5q0 -37 24 -60.5t61 -23.5t61.5 23.5t24.5 60.5q0 36 -24.5 60.5t-61.5 24.5
t-61 -24.5zM671 222.5q40 -38.5 40 -94.5q0 -58 -40 -96.5t-100 -38.5q-59 0 -98.5 38.5t-39.5 96.5q0 56 40 94.5t98 38.5q60 0 100 -38.5zM989 221.5q40 -38.5 40 -95.5t-40 -95.5t-99 -38.5t-99 38.5t-40 95.5t40 95.5t99 38.5t99 -38.5zM510.5 188q-24.5 -24 -24.5 -60
q0 -37 24.5 -61t60.5 -24q38 0 62 24t24 61q0 36 -24.5 60t-61.5 24q-36 0 -60.5 -24zM829 187q-24 -24 -24 -61t24 -60.5t61 -23.5q38 0 62 23.5t24 60.5t-24.5 61t-61.5 24t-61 -24z" />
    <glyph glyph-name="minute.sc" horiz-adv-x="208" 
d="M107 282h-60l53 238h59z" />
    <glyph glyph-name="second.sc" horiz-adv-x="333" 
d="M107 282h-60l53 238h59zM231 282h-59l52 238h59z" />
    <glyph glyph-name="fi.sc" horiz-adv-x="800" 
d="M164 228v-228h-67v520h384v-61h-317v-170h304v-61h-304zM636 0v520h67v-520h-67z" />
    <glyph glyph-name="fl.sc" horiz-adv-x="1039" 
d="M164 228v-228h-67v520h384v-61h-317v-170h304v-61h-304zM636 0v520h67v-458h316v-62h-383z" />
    <glyph glyph-name="longs_t.sc" horiz-adv-x="1047" 
d="M376.5 450.5q-44.5 13.5 -93.5 13.5q-61 0 -99.5 -23t-38.5 -64q0 -35 32 -55.5t99 -27.5l54 -6q170 -22 170 -136q0 -78 -63 -118.5t-158 -40.5q-60 0 -121 18.5t-99 46.5l33 53q34 -23 85 -40t102 -17q67 0 109 23t42 68q0 36 -33 55t-101 27l-54 6q-81 9 -124.5 44
t-43.5 94q0 71 59 113t150 42q113 0 203 -57l-31 -54q-34 22 -78.5 35.5zM836 457v-457h-67v457h-192v63h450v-63h-191z" />
    <glyph glyph-name="i.sc.latn_TRK.sc" horiz-adv-x="261" 
d="M164.5 695.5q13.5 -13.5 13.5 -33.5q0 -19 -13.5 -33t-33.5 -14q-19 0 -33 14t-14 33q0 20 13.5 33.5t33.5 13.5t33.5 -13.5zM97 0v520h67v-520h-67z" />
    <glyph glyph-name="j.latn_NLD.sc" horiz-adv-x="476" 
d="M395 741h84l-126 -151h-66zM329.5 45q-54.5 -52 -141.5 -52q-56 0 -98 19t-69 47l40 49q47 -51 125 -51q60 0 95.5 35.5t35.5 103.5v324h67v-330q0 -93 -54.5 -145z" />
    <glyph glyph-name="ldot.latn_CAT.sc" horiz-adv-x="500" 
d="M97 0v520h67v-458h317v-62h-384zM406.5 293.5q13.5 -13.5 13.5 -33.5q0 -19 -13.5 -33t-33.5 -14q-19 0 -32.5 13.5t-13.5 33.5t13 33.5t33 13.5t33.5 -13.5z" />
    <glyph glyph-name="b.ordn.sc" horiz-adv-x="414" 
d="M325.5 494q36.5 -26 36.5 -78q0 -34 -18.5 -56t-50.5 -31q35 -8 56 -31.5t21 -59.5q0 -53 -36.5 -80t-104.5 -27h-165v389h158q67 0 103.5 -26zM118 351h103q85 0 85 61t-85 61h-103v-122zM118 178h109q88 0 88 63q0 64 -88 64h-109v-127z" />
    <glyph glyph-name="d.ordn.sc" horiz-adv-x="466" 
d="M366 467q56 -53 56 -142t-56 -141.5t-152 -52.5h-150v389h150q96 0 152 -53zM118 181h95q73 0 112.5 38.5t39.5 105.5t-39.5 105.5t-112.5 38.5h-95v-288z" />
    <glyph glyph-name="e.ordn.sc" horiz-adv-x="396" 
d="M64 131v389h277v-50h-223v-118h213v-50h-213v-122h224v-49h-278z" />
    <glyph glyph-name="h.ordn.sc" horiz-adv-x="456" 
d="M337 352v168h55v-389h-55v171h-219v-171h-54v389h54v-168h219z" />
    <glyph glyph-name="l.ordn.sc" horiz-adv-x="361" 
d="M64 131v389h54v-338h218v-51h-272z" />
    <glyph glyph-name="m.ordn.sc" horiz-adv-x="541" 
d="M423 131v318l-123 -274h-58l-124 273v-317h-54v389h77l130 -284l129 284h78v-389h-55z" />
    <glyph glyph-name="r.ordn.sc" horiz-adv-x="401" 
d="M321.5 489.5q36.5 -30.5 36.5 -84.5q0 -51 -34.5 -81t-97.5 -31h-2l135 -162h-66l-129 162h-46v-162h-54v389h155q66 0 102.5 -30.5zM118 339h100q41 0 63 17t22 49q0 31 -22.5 48t-62.5 17h-100v-131z" />
    <glyph glyph-name="s.ordn.sc" horiz-adv-x="403" 
d="M204 474q-41 0 -67 -17t-26 -46q0 -25 23.5 -39t69.5 -19l34 -4q120 -14 120 -102q0 -60 -45 -91t-113 -31q-44 0 -85.5 13t-69.5 34l26 44q59 -41 130 -41q44 0 71.5 17t27.5 47q0 27 -22 41t-68 19l-37 4q-60 7 -89.5 32.5t-29.5 71.5q0 54 42 85.5t107 31.5
q45 0 79 -10.5t65 -29.5l-24 -45q-52 35 -119 35z" />
    <glyph glyph-name="t.ordn.sc" horiz-adv-x="368" 
d="M211 469v-338h-55v338h-131v51h318v-51h-132z" />
    <glyph glyph-name="egrave.ordn.sc" horiz-adv-x="396" 
d="M181 633l62 -87h-48l-73 87h59zM64 131v389h277v-50h-223v-118h213v-50h-213v-122h224v-49h-278z" />
    <glyph glyph-name="parenleft.case" horiz-adv-x="403" 
d="M247.5 638q-49.5 -55 -76.5 -130t-27 -158t27 -157.5t76.5 -129.5t115.5 -81l-23 -62q-79 29 -139.5 92t-94 150.5t-33.5 187.5t33.5 187.5t94 150.5t139.5 92l23 -61q-66 -26 -115.5 -81z" />
    <glyph glyph-name="parenright.case" horiz-adv-x="403" 
d="M155.5 63q49.5 55 76.5 130t27 158t-27 158t-76.5 129.5t-114.5 80.5l23 62q78 -29 138.5 -92t94 -150.5t33.5 -187.5t-33.5 -187.5t-94 -150.5t-138.5 -92l-23 61q65 26 114.5 81z" />
    <glyph glyph-name="hyphen.case" horiz-adv-x="416" 
d="M71 320v60h275v-60h-275z" />
    <glyph glyph-name="slash.case" horiz-adv-x="501" 
d="M41 0l342 700h77l-342 -700h-77z" />
    <glyph glyph-name="at.case" horiz-adv-x="987" 
d="M744 203q43 0 70.5 43.5t27.5 120.5q0 98 -45.5 173.5t-125 117.5t-177.5 42t-177.5 -45.5t-125.5 -125.5t-46 -178q0 -100 45.5 -180.5t125.5 -126t177 -45.5q122 0 217 69l31 -44q-108 -79 -248 -79q-115 0 -208.5 53.5t-146.5 146.5t-53 206q0 112 53.5 204t147 145
t208.5 53q116 0 209 -49.5t146 -137.5t53 -199q0 -62 -19.5 -111t-56.5 -77.5t-86 -28.5q-45 0 -73 22t-37 60q-23 -37 -61.5 -58t-89.5 -21q-53 0 -97 25.5t-69 71t-25 101.5t25 101.5t68.5 71.5t96.5 26q49 0 86 -20.5t61 -56.5v70h57v-239q0 -101 62 -101zM387 454
q-39 -41 -39 -103t39 -103t100 -41t100.5 41t39.5 103t-39.5 103t-100.5 41t-100 -41z" />
    <glyph glyph-name="bracketleft.case" horiz-adv-x="371" 
d="M101 -66v832h229v-62h-160v-708h160v-62h-229z" />
    <glyph glyph-name="backslash.case" horiz-adv-x="418" 
d="M77 700l342 -700h-78l-342 700h78z" />
    <glyph glyph-name="bracketright.case" horiz-adv-x="371" 
d="M271 766v-832h-230v62h160v708h-160v62h230z" />
    <glyph glyph-name="braceleft.case" horiz-adv-x="423" 
d="M268 673q-29 -31 -27 -92l4 -70q4 -64 -22.5 -104.5t-79.5 -56.5q53 -15 79.5 -55.5t22.5 -104.5l-4 -71q-2 -61 27 -92t81 -31h33v-62h-34q-87 0 -133.5 50t-41.5 141l3 72q3 61 -28 92t-87 31v61q56 0 87 31t28 92l-3 71q-5 91 41.5 141t133.5 50h34v-62h-33
q-52 0 -81 -31z" />
    <glyph glyph-name="braceright.case" horiz-adv-x="423" 
d="M155 27q29 31 27 92l-4 71q-4 64 22.5 104.5t79.5 55.5q-53 16 -79.5 57t-22.5 104l4 70q2 61 -27 92t-81 31h-33v62h34q87 0 133.5 -50t41.5 -141l-3 -71q-3 -61 28 -92t87 -31v-61q-56 0 -87 -31t-28 -92l3 -72q5 -91 -41.5 -141t-133.5 -50h-34v62h33q52 0 81 31z" />
    <glyph glyph-name="exclamdown.case" horiz-adv-x="263" 
d="M93.5 614.5q-16.5 16.5 -16.5 38.5t16.5 38.5t37.5 16.5q23 0 39 -16t16 -39q0 -22 -16 -38.5t-39 -16.5q-21 0 -37.5 16.5zM162 480l10 -480h-81l10 480h61z" />
    <glyph glyph-name="periodcentered.case" horiz-adv-x="369" 
d="M223 388.5q16 -16.5 16 -38.5t-16 -38.5t-38 -16.5t-38.5 16.5t-16.5 38.5q0 23 16.5 39t38.5 16t38 -16.5z" />
    <glyph glyph-name="questiondown.case" horiz-adv-x="427" 
d="M251.5 615.5q-16.5 16.5 -16.5 38.5t16.5 38.5t38.5 16.5t38 -16.5t16 -38.5t-16 -38.5t-38 -16.5t-38.5 16.5zM321 323h-28q-87 0 -136.5 -36t-49.5 -99q0 -59 50 -93.5t132 -34.5q28 0 64 4l6 -70q-35 -5 -74 -5q-76 0 -133 24.5t-88 68.5t-31 103q0 85 58 137t164 62
l4 96h62v-157z" />
    <glyph glyph-name="gravecomb.case" horiz-adv-x="0" 
d="M-433 902l108 -152h-66l-126 152h84z" />
    <glyph glyph-name="acutecomb.case" horiz-adv-x="0" 
d="M-409 902h84l-127 -152h-65z" />
    <glyph glyph-name="tildecomb.case" horiz-adv-x="0" 
d="M-548 862.5q25 13.5 60 13.5q24 0 41 -6t40 -18q15 -9 26.5 -13.5t25.5 -4.5q19 0 35 9t33 29l40 -39q-22 -29 -48 -42.5t-60 -13.5q-24 0 -40 6t-40 18q-18 10 -28.5 14t-24.5 4q-19 0 -35 -9t-33 -29l-39 38q22 30 47 43.5z" />
    <glyph glyph-name="dotbelowcomb.case" horiz-adv-x="0" 
d="M-388.5 -98.5q13.5 -13.5 13.5 -33.5t-13.5 -33.5t-33.5 -13.5q-19 0 -32.5 13.5t-13.5 33.5t13 33.5t33 13.5t33.5 -13.5z" />
    <glyph glyph-name="figuredash.case" 
d="M62 320v60h477v-60h-477z" />
    <glyph glyph-name="endash.case" horiz-adv-x="598" 
d="M61 320v60h476v-60h-476z" />
    <glyph glyph-name="emdash.case" horiz-adv-x="811" 
d="M31 320v60h750v-60h-750z" />
    <glyph glyph-name="bullet.case" horiz-adv-x="438" 
d="M292.5 424q30.5 -31 30.5 -74t-30.5 -73.5t-73.5 -30.5q-44 0 -74.5 30.5t-30.5 73.5q0 44 30.5 74.5t74.5 30.5q43 0 73.5 -31z" />
    <glyph glyph-name="guilsinglleft.case" horiz-adv-x="311" 
d="M162 166l-96 184l96 184h72l-97 -184l97 -184h-72z" />
    <glyph glyph-name="guilsinglright.case" horiz-adv-x="311" 
d="M149 534l96 -184l-96 -184h-72l97 184l-97 184h72z" />
    <glyph glyph-name="j.latn_NLD.case" horiz-adv-x="574" 
d="M481 902h84l-126 -152h-66zM446.5 111q-31.5 -59 -86.5 -89.5t-125 -30.5q-131 0 -213 95l47 50q28 -33 69.5 -54t94.5 -21q79 0 126 51t47 147v441h72v-448q0 -82 -31.5 -141z" />
    <glyph glyph-name="zero.zero" horiz-adv-x="709" 
d="M500.5 665.5q65.5 -43.5 103.5 -125t38 -190.5q0 -108 -38.5 -189.5t-104 -125.5t-144.5 -44q-80 0 -146 43.5t-104 125t-38 190.5t38 190.5t104 125t146 43.5t145.5 -43.5zM245.5 606.5q-49.5 -34.5 -78 -100t-28.5 -156.5q0 -82 26 -149l351 350q-29 44 -71 67t-90 23
q-60 0 -109.5 -34.5zM543 499l-351 -350q30 -44 71.5 -67t91.5 -23q60 0 109 34.5t77.5 100.5t28.5 156q0 84 -27 149z" />
    <glyph glyph-name="zero.osf.zero" horiz-adv-x="669" 
d="M473 494q62 -33 98.5 -94t36.5 -140q0 -80 -36.5 -141t-98.5 -94.5t-138 -33.5q-75 0 -137.5 34t-99 95t-36.5 140t36.5 140t98.5 94t138 33t138 -33zM231.5 439q-46.5 -25 -74 -71.5t-27.5 -107.5q0 -70 38 -122l289 289q-52 37 -122 37q-57 0 -103.5 -25zM496 389
l-290 -291q56 -43 129 -43q57 0 103.5 25t73.5 72t27 108q0 76 -43 129z" />
    <glyph glyph-name="zero.tf.zero" 
d="M433.5 669q58.5 -40 92.5 -121t34 -198q0 -121 -34 -201.5t-92.5 -119t-132.5 -38.5q-75 0 -134 38.5t-93 119t-34 201.5t34 201.5t93 119t134 38.5q74 0 132.5 -40zM164.5 569q-52.5 -72 -52.5 -219q0 -77 15 -133l324 324q-25 49 -64 74.5t-86 25.5q-84 0 -136.5 -72z
M472 484l-325 -324q25 -51 65 -76t89 -25q84 0 136 72t52 219q0 77 -17 134z" />
    <glyph glyph-name="zero.tosf.zero" 
d="M431.5 494q59.5 -33 94 -93.5t34.5 -140.5q0 -81 -34.5 -142t-94 -94t-131.5 -33t-131.5 33.5t-94 94.5t-34.5 141t34.5 140.5t94 93.5t131.5 33t131.5 -33zM203.5 440q-43.5 -25 -69 -71.5t-25.5 -108.5q0 -71 33 -121l281 282q-52 44 -123 44q-53 0 -96.5 -25zM459 379
l-282 -282q51 -43 123 -43q53 0 96.5 24.5t69 71.5t25.5 110q0 68 -32 119z" />
    <glyph glyph-name="zero.sc.zero" horiz-adv-x="573" 
d="M172.5 25.5q-51.5 32.5 -81.5 93t-30 141.5t30 141t81.5 92t113.5 32q63 0 114.5 -32t81.5 -92t30 -141t-30 -141.5t-81.5 -93t-114.5 -32.5q-62 0 -113.5 32.5zM400 411q-47 53 -114 53q-44 0 -80 -24t-57 -70t-21 -110q0 -56 18 -102zM367.5 79.5q36.5 24.5 57.5 70.5
t21 110q0 60 -19 104l-254 -254q21 -27 50 -41t63 -14q45 0 81.5 24.5z" />
    <glyph glyph-name="a.ss01" horiz-adv-x="546" 
d="M409 431.5q54 -49.5 54 -146.5v-285h-66v64q-33 -32 -79 -52.5t-100 -20.5q-76 0 -121 40t-45 103t51 101.5t145 38.5h148q-2 147 -145 147q-77 0 -143 -53l-31 51q79 62 182 62q96 0 150 -49.5zM322 71q42 21 74 57v93h-140q-68 0 -100.5 -24t-32.5 -62q0 -37 29 -61
t80 -24q48 0 90 21z" />
    <glyph glyph-name="agrave.ss01" horiz-adv-x="546" 
d="M215 694l108 -151h-66l-126 151h84zM409 431.5q54 -49.5 54 -146.5v-285h-66v64q-33 -32 -79 -52.5t-100 -20.5q-76 0 -121 40t-45 103t51 101.5t145 38.5h148q-2 147 -145 147q-77 0 -143 -53l-31 51q79 62 182 62q96 0 150 -49.5zM322 71q42 21 74 57v93h-140
q-68 0 -100.5 -24t-32.5 -62q0 -37 29 -61t80 -24q48 0 90 21z" />
    <glyph glyph-name="aacute.ss01" horiz-adv-x="546" 
d="M311 694h84l-126 -151h-66zM409 431.5q54 -49.5 54 -146.5v-285h-66v64q-33 -32 -79 -52.5t-100 -20.5q-76 0 -121 40t-45 103t51 101.5t145 38.5h148q-2 147 -145 147q-77 0 -143 -53l-31 51q79 62 182 62q96 0 150 -49.5zM322 71q42 21 74 57v93h-140q-68 0 -100.5 -24
t-32.5 -62q0 -37 29 -61t80 -24q48 0 90 21z" />
    <glyph glyph-name="acircumflex.ss01" horiz-adv-x="546" 
d="M266 644l-95 -99h-70l122 143h87l121 -143h-71zM409 431.5q54 -49.5 54 -146.5v-285h-66v64q-33 -32 -79 -52.5t-100 -20.5q-76 0 -121 40t-45 103t51 101.5t145 38.5h148q-2 147 -145 147q-77 0 -143 -53l-31 51q79 62 182 62q96 0 150 -49.5zM322 71q42 21 74 57v93
h-140q-68 0 -100.5 -24t-32.5 -62q0 -37 29 -61t80 -24q48 0 90 21z" />
    <glyph glyph-name="atilde.ss01" horiz-adv-x="546" 
d="M144.5 655q25.5 14 59.5 14q24 0 41.5 -6t38.5 -18q18 -9 29 -13.5t24 -4.5q19 0 35 9.5t33 28.5l39 -38q-22 -30 -47.5 -44t-59.5 -14q-25 0 -41.5 6.5t-38.5 18.5q-19 10 -29 14t-24 4q-20 0 -36 -9.5t-32 -28.5l-39 39q22 28 47.5 42zM409 431.5q54 -49.5 54 -146.5
v-285h-66v64q-33 -32 -79 -52.5t-100 -20.5q-76 0 -121 40t-45 103t51 101.5t145 38.5h148q-2 147 -145 147q-77 0 -143 -53l-31 51q79 62 182 62q96 0 150 -49.5zM322 71q42 21 74 57v93h-140q-68 0 -100.5 -24t-32.5 -62q0 -37 29 -61t80 -24q48 0 90 21z" />
    <glyph glyph-name="adieresis.ss01" horiz-adv-x="546" 
d="M196.5 649.5q13.5 -13.5 13.5 -33.5q0 -19 -13.5 -33t-33.5 -14t-33.5 13.5t-13.5 33.5t13.5 33.5t33.5 13.5t33.5 -13.5zM402 649.5q14 -13.5 14 -33.5t-14 -33.5t-34 -13.5q-19 0 -32.5 13.5t-13.5 33.5t13.5 33.5t32.5 13.5q20 0 34 -13.5zM409 431.5
q54 -49.5 54 -146.5v-285h-66v64q-33 -32 -79 -52.5t-100 -20.5q-76 0 -121 40t-45 103t51 101.5t145 38.5h148q-2 147 -145 147q-77 0 -143 -53l-31 51q79 62 182 62q96 0 150 -49.5zM322 71q42 21 74 57v93h-140q-68 0 -100.5 -24t-32.5 -62q0 -37 29 -61t80 -24
q48 0 90 21z" />
    <glyph glyph-name="aring.ss01" horiz-adv-x="546" 
d="M187.5 566q-32.5 32 -32.5 78q0 45 32.5 77t78.5 32t78.5 -32t32.5 -77q0 -46 -32.5 -78t-78.5 -32t-78.5 32zM312.5 596q19.5 20 19.5 48t-19.5 47.5t-46.5 19.5q-28 0 -47.5 -19.5t-19.5 -47.5t19.5 -48t47.5 -20q27 0 46.5 20zM409 431.5q54 -49.5 54 -146.5v-285h-66
v64q-33 -32 -79 -52.5t-100 -20.5q-76 0 -121 40t-45 103t51 101.5t145 38.5h148q-2 147 -145 147q-77 0 -143 -53l-31 51q79 62 182 62q96 0 150 -49.5zM322 71q42 21 74 57v93h-140q-68 0 -100.5 -24t-32.5 -62q0 -37 29 -61t80 -24q48 0 90 21z" />
    <glyph glyph-name="amacron.ss01" horiz-adv-x="546" 
d="M415 643v-55h-298v55h298zM409 431.5q54 -49.5 54 -146.5v-285h-66v64q-33 -32 -79 -52.5t-100 -20.5q-76 0 -121 40t-45 103t51 101.5t145 38.5h148q-2 147 -145 147q-77 0 -143 -53l-31 51q79 62 182 62q96 0 150 -49.5zM322 71q42 21 74 57v93h-140q-68 0 -100.5 -24
t-32.5 -62q0 -37 29 -61t80 -24q48 0 90 21z" />
    <glyph glyph-name="abreve.ss01" horiz-adv-x="546" 
d="M266 600q85 0 113 97l54 -16q-19 -67 -62 -102.5t-105 -35.5q-63 0 -106 35.5t-61 102.5l54 16q27 -97 113 -97zM409 431.5q54 -49.5 54 -146.5v-285h-66v64q-33 -32 -79 -52.5t-100 -20.5q-76 0 -121 40t-45 103t51 101.5t145 38.5h148q-2 147 -145 147q-77 0 -143 -53
l-31 51q79 62 182 62q96 0 150 -49.5zM322 71q42 21 74 57v93h-140q-68 0 -100.5 -24t-32.5 -62q0 -37 29 -61t80 -24q48 0 90 21z" />
    <glyph glyph-name="aogonek.ss01" horiz-adv-x="546" 
d="M389 -207q-46 0 -75 23.5t-29 62.5q0 37 28 66.5t84 57.5v61q-33 -32 -79 -52.5t-100 -20.5q-76 0 -121 40t-45 103t51 101.5t145 38.5h148q-2 147 -145 147q-77 0 -143 -53l-31 51q79 62 182 62q96 0 150 -49.5t54 -146.5v-285q-59 -27 -87 -52.5t-28 -54.5
q0 -20 13 -31.5t34 -11.5q30 0 55 28l35 -43q-40 -42 -96 -42zM322 71q42 21 74 57v93h-140q-68 0 -100.5 -24t-32.5 -62q0 -37 29 -61t80 -24q48 0 90 21z" />
    <glyph glyph-name="J.ss02" horiz-adv-x="425" 
d="M84 61q79 0 126 51t47 147v441h72v-448q0 -82 -31.5 -141t-86.5 -89.5t-126 -30.5q-30 0 -65 7l12 69q24 -6 52 -6z" />
    <glyph glyph-name="IJ.ss02" horiz-adv-x="699" 
d="M101 0v700h73v-700h-73zM359 61q79 0 125.5 51t46.5 147v441h73v-448q0 -82 -31.5 -141t-87 -89.5t-125.5 -30.5q-30 0 -65 7l12 69q24 -6 52 -6z" />
    <glyph glyph-name="Jcircumflex.ss02" horiz-adv-x="425" 
d="M293 851l-94 -99h-72l122 144h87l122 -144h-70zM84 61q79 0 126 51t47 147v441h72v-448q0 -82 -31.5 -141t-86.5 -89.5t-126 -30.5q-30 0 -65 7l12 69q24 -6 52 -6z" />
    <glyph glyph-name="j.sc.ss02" horiz-adv-x="350" 
d="M67 57q57 0 91 35.5t34 103.5v324h66v-330q0 -94 -52 -145.5t-136 -51.5q-23 0 -50 5l9 63q16 -4 38 -4z" />
    <glyph glyph-name="ij.sc.ss02" horiz-adv-x="612" 
d="M97 0v520h67v-520h-67zM329 57q57 0 90.5 35.5t33.5 103.5v324h66v-330q0 -94 -52 -145.5t-136 -51.5q-23 0 -50 5l9 63q16 -4 39 -4z" />
    <glyph glyph-name="jcircumflex.sc.ss02" horiz-adv-x="350" 
d="M225 691l-95 -100h-71l122 144h87l122 -144h-71zM67 57q57 0 91 35.5t34 103.5v324h66v-330q0 -94 -52 -145.5t-136 -51.5q-23 0 -50 5l9 63q16 -4 38 -4z" />
    <glyph glyph-name="j.latn_NLD.sc.ss02" horiz-adv-x="350" 
d="M270 741h84l-126 -151h-66zM67 57q57 0 91 35.5t34 103.5v324h66v-330q0 -94 -52 -145.5t-136 -51.5q-23 0 -50 5l9 63q16 -4 38 -4z" />
    <glyph glyph-name="j.latn_NLD.case.ss02" horiz-adv-x="425" 
d="M332 902h84l-126 -152h-67zM84 61q79 0 126 51t47 147v441h72v-448q0 -82 -31.5 -141t-86.5 -89.5t-126 -30.5q-30 0 -65 7l12 69q24 -6 52 -6z" />
    <glyph glyph-name="seven.ss03" horiz-adv-x="547" 
d="M384 382h114v-64h-146l-156 -318h-82l159 320h-196v63h228l126 252h-391v65h475v-54z" />
    <glyph glyph-name="seven.osf.ss03" horiz-adv-x="547" 
d="M379 199h122v-63h-153l-157 -318h-80l161 320h-189v64h221l126 251h-393v65h474v-54z" />
    <glyph glyph-name="seven.tf.ss03" 
d="M410 382h113v-64h-145l-157 -318h-82l160 320h-196v63h228l126 252h-392v65h475v-54z" />
    <glyph glyph-name="seven.tosf.ss03" 
d="M416 199h122v-63h-153l-158 -318h-80l161 320h-188v64h220l127 251h-393v65h474v-54z" />
    <glyph glyph-name="seven.sc.ss03" horiz-adv-x="438" 
d="M311 285h80v-57h-108l-115 -228h-76l119 230h-140v57h170l89 173h-290v60h365v-51z" />
    <glyph glyph-name="Z.ss04" horiz-adv-x="661" 
d="M347 317l-190 -249h443v-68h-539v57l202 262h-135v66h185l189 247h-435v68h532v-56l-201 -260h135v-67h-186z" />
    <glyph glyph-name="z.ss04" horiz-adv-x="531" 
d="M285 215l-132 -154h317v-61h-408v49l146 168h-101v50h145l126 145h-306v61h394v-50l-137 -158h100v-50h-144z" />
    <glyph glyph-name="Zacute.ss04" horiz-adv-x="661" 
d="M372 902h84l-127 -152h-65zM347 317l-190 -249h443v-68h-539v57l202 262h-135v66h185l189 247h-435v68h532v-56l-201 -260h135v-67h-186z" />
    <glyph glyph-name="zacute.ss04" horiz-adv-x="531" 
d="M317 694h84l-126 -151h-67zM285 215l-132 -154h317v-61h-408v49l146 168h-101v50h145l126 145h-306v61h394v-50l-137 -158h100v-50h-144z" />
    <glyph glyph-name="Zdotaccent.ss04" horiz-adv-x="661" 
d="M361 859.5q14 -14.5 14 -34.5q0 -21 -14 -35t-35 -14q-20 0 -34 14t-14 35q0 20 14 34.5t34 14.5q21 0 35 -14.5zM347 317l-190 -249h443v-68h-539v57l202 262h-135v66h185l189 247h-435v68h532v-56l-201 -260h135v-67h-186z" />
    <glyph glyph-name="zdotaccent.ss04" horiz-adv-x="531" 
d="M304.5 674q13.5 -14 13.5 -34q0 -19 -13.5 -33t-33.5 -14q-19 0 -32.5 13.5t-13.5 33.5t13.5 34t32.5 14q20 0 33.5 -14zM285 215l-132 -154h317v-61h-408v49l146 168h-101v50h145l126 145h-306v61h394v-50l-137 -158h100v-50h-144z" />
    <glyph glyph-name="Zcaron.ss04" horiz-adv-x="661" 
d="M332 796l95 98h71l-122 -143h-87l-121 143h70zM347 317l-190 -249h443v-68h-539v57l202 262h-135v66h185l189 247h-435v68h532v-56l-201 -260h135v-67h-186z" />
    <glyph glyph-name="zcaron.ss04" horiz-adv-x="531" 
d="M271 589l95 98h71l-122 -143h-87l-122 143h71zM285 215l-132 -154h317v-61h-408v49l146 168h-101v50h145l126 145h-306v61h394v-50l-137 -158h100v-50h-144z" />
    <glyph glyph-name="z.sc.ss04" horiz-adv-x="549" 
d="M290 231l-143 -170h343v-61h-431v52l153 181h-96v58h143l141 168h-336v61h425v-52l-152 -179h97v-58h-144z" />
    <glyph glyph-name="zacute.sc.ss04" horiz-adv-x="549" 
d="M322 741h84l-127 -151h-66zM290 231l-143 -170h343v-61h-431v52l153 181h-96v58h143l141 168h-336v61h425v-52l-152 -179h97v-58h-144z" />
    <glyph glyph-name="zdotaccent.sc.ss04" horiz-adv-x="549" 
d="M309.5 695.5q13.5 -13.5 13.5 -33.5t-13.5 -33.5t-33.5 -13.5q-19 0 -33 14t-14 33q0 20 13.5 33.5t33.5 13.5t33.5 -13.5zM290 231l-143 -170h343v-61h-431v52l153 181h-96v58h143l141 168h-336v61h425v-52l-152 -179h97v-58h-144z" />
    <glyph glyph-name="zcaron.sc.ss04" horiz-adv-x="549" 
d="M276 636l95 98h70l-122 -143h-87l-121 143h71zM290 231l-143 -170h343v-61h-431v52l153 181h-96v58h143l141 168h-336v61h425v-52l-152 -179h97v-58h-144z" />
    <glyph glyph-name="Adieresis.ss05" horiz-adv-x="708" 
d="M137.5 695.5q13.5 -13.5 13.5 -33.5t-13.5 -33.5t-33.5 -13.5t-33.5 13.5t-13.5 33.5t13.5 33.5t33.5 13.5t33.5 -13.5zM637.5 695.5q13.5 -13.5 13.5 -33.5t-13.5 -33.5t-33.5 -13.5t-33 13.5t-13 33.5t13 33.5t33 13.5t33.5 -13.5zM612 0l-81 199h-355l-82 -199h-75
l291 700h88l291 -700h-77zM502 267l-149 363l-150 -363h299z" />
    <glyph glyph-name="Odieresis.ss05" horiz-adv-x="841" 
d="M107 696.5q13 -12.5 14 -30.5q-4 -18 -17.5 -32t-30.5 -19q-19 1 -32 14t-13 33t14 33.5t33 13.5t32 -12.5zM605 663q82 -46 128.5 -128t46.5 -185t-46.5 -185t-128.5 -128t-184 -46t-184 46t-129 128t-47 185t47 185t129 128t184 46t184 -46zM799.5 695.5
q13.5 -13.5 13.5 -33.5q0 -19 -12.5 -32.5t-31.5 -14.5q-17 4 -30.5 18.5t-18.5 32.5q2 18 14.5 30.5t31.5 12.5q20 0 33.5 -13.5zM276 602.5q-65 -36.5 -102.5 -102t-37.5 -150.5q0 -84 37.5 -150t102.5 -102.5t145 -36.5t144.5 36.5t102 102.5t37.5 150q0 85 -37.5 150.5
t-102 102t-144.5 36.5t-145 -36.5z" />
    <glyph glyph-name="Udieresis.ss05" horiz-adv-x="754" 
d="M339.5 695.5q13.5 -13.5 13.5 -33.5q0 -19 -13.5 -32.5t-33.5 -13.5q-19 0 -32.5 13.5t-13.5 32.5q0 20 13.5 33.5t32.5 13.5q20 0 33.5 -13.5zM625.5 119q-37.5 -64 -102.5 -96t-147 -32t-146.5 32t-101.5 96t-37 155v426h72v-422q0 -107 59 -162t154 -55q97 0 155.5 55
t58.5 162v422h73v-426q0 -91 -37.5 -155zM480.5 665.5q13.5 -13.5 13.5 -33.5q0 -19 -13 -32.5t-33 -13.5t-33.5 13t-13.5 33t13.5 33.5t33.5 13.5q19 0 32.5 -13.5z" />
    <glyph glyph-name="hyphen.ss06" horiz-adv-x="465" 
d="M93 278v58l280 102v-58zM93 114v58l280 102v-58z" />
    <glyph glyph-name="hyphen.case.ss06" horiz-adv-x="467" 
d="M93 348v58l280 103v-58zM93 184v59l280 102v-58z" />
    <glyph glyph-name="f_t" horiz-adv-x="788" 
d="M534 412v-246q0 -55 26.5 -83t73.5 -28q56 0 103 35l30 -50q-61 -49 -140 -49q-77 0 -119 43.5t-42 129.5v248h-259v-412h-68v412h-112v61h112v53q0 65 26.5 111t71.5 69t100 23t99.5 -23t71 -69t26.5 -111v-53h211v-61h-211zM466 473v48q0 70 -35 107t-94 37t-94.5 -37
t-35.5 -107v-48h259z" />
    <glyph glyph-name="longs_t" horiz-adv-x="733" 
d="M478 412v-246q0 -55 27 -83t74 -28q28 0 54.5 9.5t48.5 25.5l30 -50q-63 -49 -141 -49q-77 0 -118.5 43.5t-41.5 129.5v248h-103v61h103v48q0 70 -35.5 107t-93.5 37q-59 0 -95 -37t-36 -107v-521h-67v526q0 65 26.5 111t71.5 69t100 23q54 0 98.5 -23t71 -69t26.5 -111
v-53h211v-61h-211z" />
    <glyph glyph-name="uni01CD" unicode="&#x1cd;" horiz-adv-x="708" 
d="M354 796l95 98h70l-122 -143h-86l-122 143h71zM612 0l-81 199h-355l-82 -199h-75l291 700h88l291 -700h-77zM502 267l-149 363l-150 -363h299z" />
    <glyph glyph-name="uni01E2" unicode="&#x1e2;" horiz-adv-x="1136" 
d="M908 850v-54h-297v54h297zM567 0v188h-323l-142 -188h-87l530 700h506v-67h-412v-247h399v-67h-399v-251h416v-68h-488zM567 616l-272 -360h272v360z" />
    </font>
</defs>
</svg>
